<?xml version="1.0" standalone="no"?>
<!DOCTYPE svg PUBLIC "-//W3C//DTD SVG 1.1//EN" "http://www.w3.org/Graphics/SVG/1.1/DTD/svg11.dtd" >
<svg xmlns="http://www.w3.org/2000/svg">
<metadata></metadata>
<defs>
<font id="aileronitalic" horiz-adv-x="1187" >
<font-face units-per-em="2048" ascent="1577" descent="-471" />
<missing-glyph horiz-adv-x="401" />
<glyph unicode="&#xfb01;" horiz-adv-x="1067" d="M72 0l166 942h-97l23 135h98l4 29q8 52 29 131q88 307 496 307q62 0 124 -10l-26 -145q-133 12 -218.5 -1.5t-132 -51t-67.5 -103.5q-13 -36 -27 -111l-8 -45h574l-189 -1077h-176l164 942h-395l-166 -942h-176z" />
<glyph unicode="&#xfb02;" horiz-adv-x="1089" d="M70 0l166 942h-97l25 135h96l4 29q17 85 29 131q88 307 498 307q168 0 280 -39l-211 -1194q-14 -77 -14 -106q0 -85 119 -76l-23 -129q-55 -8 -127 -8q-76 0 -117 29.5t-41 103.5q0 30 27 180l193 1092q-59 12 -119 12q-231 0 -289 -176q-20 -73 -25 -111l-8 -45h223 l-24 -135h-223l-166 -942h-176z" />
<glyph horiz-adv-x="2048" />
<glyph horiz-adv-x="2048" />
<glyph unicode="&#xd;" horiz-adv-x="2048" />
<glyph unicode=" "  horiz-adv-x="401" />
<glyph unicode="&#x09;" horiz-adv-x="401" />
<glyph unicode="&#xa0;" horiz-adv-x="401" />
<glyph unicode="!" horiz-adv-x="532" d="M55 76q0 67 46 112t110 45q50 0 80.5 -29t30.5 -75q0 -67 -46 -112.5t-110 -45.5q-50 0 -80.5 29.5t-30.5 75.5zM154 369l180 1044h209l-230 -1044h-159z" />
<glyph unicode="&#x22;" horiz-adv-x="567" d="M84 993l70 512h184l-111 -512h-143zM371 993l69 512h185l-111 -512h-143z" />
<glyph unicode="#" d="M131 449l21 114h206l113 287h-209l21 115h233l174 448h119l-174 -448h186l174 448h119l-174 -448h182l-20 -115h-207l-113 -287h209l-20 -114h-234l-174 -449h-119l174 449h-186l-174 -449h-119l174 449h-182zM477 563h187l112 287h-186z" />
<glyph unicode="$" d="M29 381h188q16 -223 203 -262l92 522q-80 24 -137.5 52.5t-105 71t-71.5 104.5t-24 143q0 77 29 150t85.5 135t151.5 101.5t215 43.5l27 155h119l-29 -161q158 -25 241.5 -132t86.5 -262h-189q-3 96 -45.5 161.5t-117.5 88.5l-89 -491q185 -62 274 -161.5t89 -250.5 q0 -186 -139.5 -298t-370.5 -120l-27 -155h-118l28 161q-181 22 -268.5 129t-97.5 275zM367 1032q0 -79 45.5 -126t134.5 -77l82 471q-127 -10 -194.5 -86.5t-67.5 -181.5zM539 111q290 16 290 268q0 89 -48.5 144t-153.5 93z" />
<glyph unicode="%" horiz-adv-x="1515" d="M111 0l1161 1413h190l-1161 -1413h-190zM172 1057q0 73 22 140.5t64 123t111.5 88.5t156.5 33q122 0 194.5 -73.5t72.5 -192.5q0 -73 -22 -140.5t-64 -123t-112 -88.5t-157 -33q-122 0 -194 73t-72 193zM346 1047q0 -62 26 -98t81 -36q74 0 119.5 75t45.5 198 q0 133 -106 133q-74 0 -120 -75t-46 -197zM780 238q0 73 22 140.5t64 123t112 88.5t157 33q122 0 194 -73.5t72 -193.5q0 -73 -22 -140.5t-64 -123t-111.5 -88.5t-156.5 -33q-122 0 -194.5 73.5t-72.5 193.5zM954 227q0 -62 26 -97.5t81 -35.5q74 0 120 75.5t46 197.5 q0 62 -26 97.5t-81 35.5q-74 0 -120 -75.5t-46 -197.5z" />
<glyph unicode="&#x26;" horiz-adv-x="1349" d="M33 319q0 61 25 122t72 114.5t123 93.5t171 56q-98 32 -156.5 114t-58.5 182q0 55 20.5 114t66 118t110.5 105t162 75t212 29q119 0 244 -23l-27 -139q-115 23 -247 23q-87 0 -156 -25.5t-110 -67.5t-62 -92t-21 -104q0 -106 63 -171.5t161 -70.5q78 -4 249 -4l46 250 h176l-45 -250h196l-24 -143h-197l-111 -623q-184 -31 -391 -31q-227 0 -359 89.5t-132 258.5zM225 332q0 -104 82 -162.5t246 -58.5q117 0 209 10l88 504q-166 0 -248 -4q-185 -9 -281 -87t-96 -202z" />
<glyph unicode="'" horiz-adv-x="280" d="M84 993l70 512h184l-111 -512h-143z" />
<glyph unicode="(" horiz-adv-x="645" d="M172 414q0 291 110.5 612t321.5 571h119q-212 -275 -316 -583t-104 -596q0 -319 109 -582h-119q-121 248 -121 578z" />
<glyph unicode=")" horiz-adv-x="645" d="M-51 -164q212 275 316 583.5t104 596.5q0 318 -109 581h119q121 -248 121 -577q0 -188 -45 -390t-145 -413.5t-242 -380.5h-119z" />
<glyph unicode="*" horiz-adv-x="1085" d="M150 610l61 121l293 -123l47 365h127l-82 -363l336 121l16 -121l-338 -86l181 -280l-117 -76l-148 307l-258 -307l-88 76l277 280z" />
<glyph unicode="+" d="M133 588l21 114h370l74 422h119l-74 -422h371l-21 -114h-370l-74 -414h-119l74 414h-371z" />
<glyph unicode="," horiz-adv-x="477" d="M-178 -246l239 451h193l-4 -25l-262 -426h-166z" />
<glyph unicode="-" horiz-adv-x="561" d="M55 522l21 115h430l-21 -115h-430z" />
<glyph unicode="." horiz-adv-x="477" d="M0 80q0 66 45 109.5t109 43.5q50 0 79 -30.5t29 -77.5q0 -67 -44.5 -110.5t-108.5 -43.5q-50 0 -79.5 31t-29.5 78z" />
<glyph unicode="/" horiz-adv-x="620" d="M-117 -61l785 1536h127l-785 -1536h-127z" />
<glyph unicode="0" d="M55 504q0 99 13.5 200.5t41 209t76.5 200.5t114.5 167.5t160.5 117.5t209 43q117 0 206.5 -40.5t143.5 -114t81 -168t27 -208.5q0 -84 -9 -170.5t-30.5 -180t-53.5 -177.5t-81.5 -160t-111.5 -131.5t-146 -88t-182 -32.5q-117 0 -207 41t-144 114.5t-81 168.5t-27 209z M252 506q0 -182 66 -288.5t200 -106.5q94 0 169.5 61t119.5 151t73.5 203t40.5 208t11 175q0 182 -66 288t-200 106q-79 0 -145 -42t-109.5 -112t-76 -154t-50 -176.5t-25.5 -169.5t-8 -143z" />
<glyph unicode="1" d="M297 885l39 200l530 328h105l-254 -1413h-176l209 1163z" />
<glyph unicode="2" d="M31 0l20 121l619 524q168 143 231.5 237t63.5 208q0 102 -55 157.5t-169 55.5q-127 0 -222 -82.5t-128 -229.5h-188q41 197 192 324t371 127q188 0 289.5 -92.5t101.5 -253.5q0 -80 -24.5 -150t-81 -141.5t-121.5 -134t-172 -152.5l-443 -375h686l-24 -143h-946z" />
<glyph unicode="3" d="M45 403h188q7 -136 89.5 -214t209.5 -78q141 0 232.5 76.5t91.5 207.5q0 111 -84 182.5t-231 71.5h-35l24 144h35q176 0 275.5 81.5t99.5 208.5q0 92 -61.5 156t-178.5 64q-103 0 -184 -68t-125 -209h-188q54 203 190.5 309.5t339.5 106.5q181 0 290.5 -95.5 t109.5 -246.5q0 -136 -92 -241.5t-246 -137.5q127 -38 190.5 -123t63.5 -199q0 -192 -150 -310t-397 -118q-202 0 -327 120.5t-130 311.5z" />
<glyph unicode="4" d="M27 315l20 109l844 989h186l-168 -954h178l-26 -144h-178l-56 -315h-176l56 315h-680zM260 459h473l137 729z" />
<glyph unicode="5" d="M63 383h191q0 -129 70 -200.5t196 -71.5q159 0 261 110t102 275q0 142 -73.5 219.5t-191.5 77.5q-203 0 -327 -201h-168l231 821h828l-25 -143h-684l-143 -498l106 105q110 55 230 55q194 0 301.5 -113.5t107.5 -294.5q0 -243 -159.5 -398t-407.5 -155q-206 0 -322.5 105 t-122.5 307z" />
<glyph unicode="6" d="M94 451q0 199 49.5 379.5t137.5 316t217 215.5t280 80q186 0 285.5 -90t118.5 -271h-189q-9 109 -64.5 165.5t-170.5 56.5q-151 0 -276.5 -151t-176.5 -417l107 131q128 88 286 88q93 0 171 -33.5t129.5 -89.5t79.5 -129t28 -153q0 -159 -69 -290t-198.5 -209.5 t-295.5 -78.5q-204 0 -326.5 123t-122.5 357zM274 438q0 -160 74.5 -243.5t216.5 -83.5q146 0 247 118.5t101 288.5q0 129 -70.5 213t-199.5 84q-155 0 -262 -113t-107 -264z" />
<glyph unicode="7" d="M106 0l900 1270h-783l27 143h999l-22 -123l-918 -1290h-203z" />
<glyph unicode="8" d="M51 315q0 139 93.5 252.5t261.5 161.5q-83 36 -136 113.5t-53 169.5q0 128 77 227.5t200.5 151t267.5 51.5q196 0 302.5 -95t106.5 -253q0 -115 -81 -219t-222 -146q91 -35 148 -121t57 -188q0 -91 -36.5 -172t-105 -143.5t-177 -99t-242.5 -36.5q-99 0 -180.5 20 t-145.5 60.5t-99.5 108t-35.5 157.5zM244 346q0 -114 76 -175.5t210 -61.5q90 0 160 26.5t110 69.5t60.5 93.5t20.5 104.5q0 101 -68 174.5t-201 73.5q-82 0 -147.5 -20.5t-105.5 -53t-67 -74t-37.5 -80.5t-10.5 -77zM410 1014q0 -93 62.5 -158t172.5 -65q86 0 153.5 26.5 t105 68.5t56.5 89t19 94q0 101 -64 167.5t-178 66.5q-142 0 -234.5 -84t-92.5 -205z" />
<glyph unicode="9" d="M66 332h188q9 -109 64 -165t171 -56q151 0 276.5 150.5t176.5 416.5l-106 -131q-128 -88 -287 -88q-124 0 -218.5 57.5t-142 148.5t-47.5 199q0 118 41 224t113 184t178.5 124t231.5 46q204 0 326 -122.5t122 -356.5q0 -199 -49.5 -379.5t-137.5 -316t-217 -216 t-280 -80.5q-186 0 -285 90t-118 271zM334 895q0 -129 70.5 -213t199.5 -84q155 0 262 113t107 264q0 160 -74.5 244t-216.5 84q-146 0 -247 -118.5t-101 -289.5z" />
<glyph unicode=":" horiz-adv-x="477" d="M0 80q0 66 45 109.5t109 43.5q50 0 79 -30.5t29 -77.5q0 -67 -44.5 -110.5t-108.5 -43.5q-50 0 -79.5 31t-29.5 78zM154 961q0 66 44.5 109.5t108.5 43.5q50 0 79.5 -30.5t29.5 -77.5q0 -66 -45 -110t-109 -44q-50 0 -79 31t-29 78z" />
<glyph unicode=";" horiz-adv-x="477" d="M-178 -246l239 451h191l-4 -25l-260 -426h-166zM154 961q0 66 44.5 109.5t108.5 43.5q50 0 79.5 -30.5t29.5 -77.5q0 -66 -45 -110t-109 -44q-50 0 -79 31t-29 78z" />
<glyph unicode="&#x3c;" d="M197 473l24 139l893 412l-24 -150l-760 -339l641 -340l-25 -134z" />
<glyph unicode="=" d="M96 383l21 115h860l-21 -115h-860zM170 793l20 114h861l-21 -114h-860z" />
<glyph unicode="&#x3e;" d="M78 61l24 150l760 340l-641 340l25 133l749 -412l-24 -139z" />
<glyph unicode="?" horiz-adv-x="1206" d="M248 1012q30 198 172.5 314t345.5 116q179 0 281 -85t102 -220q0 -124 -65 -232t-232 -256q-98 -86 -141.5 -145.5t-65.5 -134.5h-176q15 85 59 150.5t164 182.5q157 152 210.5 240.5t53.5 177.5q0 87 -58 135t-155 48q-120 0 -203 -72.5t-108 -218.5h-184zM381 76 q0 67 46 112t110 45q50 0 80 -29t30 -75q0 -67 -45.5 -112.5t-109.5 -45.5q-50 0 -80.5 29.5t-30.5 75.5z" />
<glyph unicode="@" horiz-adv-x="1744" d="M111 498q0 158 48 297t130.5 241t190.5 176t231.5 111t249.5 37q291 0 474 -188.5t183 -493.5q0 -133 -37.5 -237.5t-99.5 -165t-134 -91t-149 -30.5q-84 0 -139 36t-66 111l-43 -84q-96 -80 -205 -80q-53 0 -101 17t-91.5 53.5t-69.5 103.5t-26 156q0 134 55.5 253 t158 194t228.5 75q123 0 180 -63l19 -99l35 125h165l-129 -540q-8 -36 -8 -66q0 -34 16 -54t62 -20q101 0 176.5 104.5t75.5 297.5q0 110 -28 203t-77.5 159.5t-117 113t-147 69t-167.5 22.5q-104 0 -206.5 -31t-194.5 -94t-162 -150t-111.5 -208t-41.5 -258 q0 -145 45.5 -259.5t125.5 -187t183.5 -110t224.5 -37.5q131 0 268.5 42t245.5 122l49 -101q-268 -182 -569 -182q-110 0 -212 27.5t-191 85.5t-155 140.5t-104 200t-38 257.5zM649 479q0 -108 38 -157.5t101 -49.5q81 0 145 72t87 170l18 80q31 138 -7 199t-120 61 q-80 0 -141 -55t-91 -139.5t-30 -180.5z" />
<glyph unicode="A" horiz-adv-x="1323" d="M-35 0l758 1413h250l237 -1413h-190l-78 500h-518l-258 -500h-201zM498 643h424l-99 631z" />
<glyph unicode="B" horiz-adv-x="1302" d="M106 0l250 1413h439q116 0 182 -6q142 -15 225.5 -99t83.5 -212q0 -135 -71 -226.5t-240 -138.5q103 -37 156 -117.5t53 -189.5q0 -75 -30 -145.5t-85.5 -128.5t-141.5 -97t-190 -47q-77 -6 -135 -6h-496zM307 143h307q45 0 99 4q145 13 211.5 90t66.5 183 q0 195 -190 221q-60 8 -111 8h-293zM422 793h289q73 0 114 4q123 15 196 91t73 177q0 95 -46.5 143.5t-138.5 57.5q-37 4 -112 4h-289z" />
<glyph unicode="C" horiz-adv-x="1437" d="M111 547q0 78 14 160.5t45 170.5t76.5 169t112 153.5t147 126t187.5 84.5t227 31q242 0 368 -119.5t139 -318.5h-188q-12 135 -93 217t-247 82q-118 0 -217.5 -45t-168 -121t-117 -176t-71 -208.5t-22.5 -220.5q0 -193 104 -307t269 -114q160 0 274.5 82.5t167.5 212.5 h189q-182 -435 -654 -435q-262 0 -402 151.5t-140 424.5z" />
<glyph unicode="D" horiz-adv-x="1456" d="M106 0l250 1413h363q108 0 178 -6q108 -10 199.5 -51.5t162.5 -114.5t111.5 -185.5t40.5 -252.5q0 -112 -28.5 -219.5t-89 -206t-147 -176t-209 -129.5t-267.5 -66q-74 -6 -183 -6h-381zM307 143h217q92 0 160 9q136 19 240.5 80t167 150.5t94 194.5t31.5 222 q0 209 -97 325t-252 138q-60 8 -155 8h-205z" />
<glyph unicode="E" horiz-adv-x="1214" d="M106 0l250 1413h920l-27 -143h-741l-88 -492h682l-25 -143h-682l-88 -492h766l-26 -143h-941z" />
<glyph unicode="F" horiz-adv-x="1179" d="M106 0l250 1413h920l-27 -143h-741l-88 -492h682l-25 -143h-682l-112 -635h-177z" />
<glyph unicode="G" horiz-adv-x="1490" d="M117 567q0 129 33 254.5t102 237.5t165 197.5t231 135.5t292 50q243 0 375 -120.5t145 -317.5h-188q-11 132 -102 215.5t-259 83.5q-114 0 -212.5 -40t-169 -109t-121 -161t-75 -197.5t-24.5 -217.5q0 -230 110.5 -348.5t289.5 -118.5t314 119.5t169 308.5h-338l25 143 h514l-121 -682h-152l41 244l-90 -140q-142 -133 -397 -133q-258 0 -407.5 156.5t-149.5 439.5z" />
<glyph unicode="H" horiz-adv-x="1492" d="M106 0l250 1413h176l-114 -647h778l115 647h176l-250 -1413h-176l108 618h-778l-108 -618h-177z" />
<glyph unicode="I" horiz-adv-x="538" d="M106 0l250 1413h176l-249 -1413h-177z" />
<glyph unicode="J" horiz-adv-x="1079" d="M20 397h189q0 -128 58 -207t182 -79q117 0 184 62t98 181q17 70 35 170l156 889h176l-160 -903q-16 -90 -37 -180q-84 -359 -475 -359q-104 0 -184 36t-127.5 97t-71 135.5t-23.5 157.5z" />
<glyph unicode="K" horiz-adv-x="1288" d="M106 0l250 1413h176l-122 -694l813 694h215l-828 -706l549 -707h-215l-463 610l-106 -94l-92 -516h-177z" />
<glyph unicode="L" horiz-adv-x="1183" d="M106 0l250 1413h176l-225 -1270h766l-26 -143h-941z" />
<glyph unicode="M" horiz-adv-x="1771" d="M106 0l250 1413h291l199 -1229l629 1229h290l-249 -1413h-177l222 1229l-639 -1229h-222l-200 1247l-217 -1247h-177z" />
<glyph unicode="N" horiz-adv-x="1468" d="M106 0l250 1413h271l440 -1245l219 1245h176l-250 -1413h-270l-444 1245l-215 -1245h-177z" />
<glyph unicode="O" horiz-adv-x="1529" d="M121 584q0 130 29 251.5t92 232.5t154 193.5t224.5 131.5t294.5 49q137 0 246.5 -48.5t179.5 -133t107 -194.5t37 -237q0 -130 -29 -251.5t-92 -232.5t-154.5 -193.5t-225 -131.5t-294.5 -49q-137 0 -246.5 48.5t-179 133t-106.5 194.5t-37 237zM313 584 q0 -215 110.5 -344t303.5 -129q112 0 207.5 44t160 116t110 166t66.5 193.5t21 198.5q0 215 -111 344.5t-302 129.5q-112 0 -207.5 -44t-160.5 -116.5t-110.5 -166.5t-66.5 -193.5t-21 -198.5z" />
<glyph unicode="P" horiz-adv-x="1245" d="M106 0l250 1413h445q103 0 164 -6q137 -13 226 -108t89 -252q0 -179 -115.5 -310.5t-328.5 -152.5q-66 -6 -172 -6h-279l-102 -578h-177zM412 725h278q109 0 158 10q242 54 242 301q0 94 -42 149t-108 70q-51 11 -156 11h-278z" />
<glyph unicode="Q" horiz-adv-x="1546" d="M119 584q0 123 29 243t91 232t151 196.5t219 135.5t284 51q122 0 221 -32t167 -87.5t114 -133.5t67 -168t21 -192q0 -202 -79.5 -385.5t-232.5 -300.5q110 -24 215 -129l-120 -120q-107 70 -158.5 92t-110.5 22q-69 0 -153 -20q-67 -17 -135 -17q-122 0 -221 32 t-167 87.5t-114 133.5t-67 168t-21 192zM311 584q0 -215 110.5 -344t303.5 -129q112 0 207.5 44t160 116t110 166t66.5 193.5t21 198.5q0 215 -111 344.5t-302 129.5q-112 0 -207.5 -44t-160.5 -116.5t-110.5 -166.5t-66.5 -193.5t-21 -198.5z" />
<glyph unicode="R" horiz-adv-x="1300" d="M106 0l250 1413h416q121 0 182 -6q349 -37 349 -363q0 -142 -93.5 -249.5t-248.5 -145.5q134 -58 137 -229q3 -263 49 -420h-184q-26 148 -31 354q-3 112 -48 165t-153 59q-33 2 -100 2h-246l-102 -580h-177zM410 723h260q98 0 139 4q150 13 225.5 104t75.5 209 q0 105 -56.5 161t-154.5 65q-39 4 -129 4h-262z" />
<glyph unicode="S" horiz-adv-x="1157" d="M14 401h189q9 -129 95 -209.5t232 -80.5q138 0 229 68.5t91 187.5q0 98 -72 161t-231 109q-80 23 -140.5 52.5t-111.5 73t-78 106t-27 141.5q0 191 137.5 311.5t370.5 120.5q110 0 195.5 -34t137.5 -93.5t78.5 -133.5t27.5 -159h-189q-5 134 -75.5 207.5t-196.5 73.5 t-209.5 -70.5t-83.5 -194.5q0 -99 58.5 -149t193.5 -90q206 -62 306.5 -154.5t100.5 -247.5q0 -191 -142 -308.5t-388 -117.5q-231 0 -357.5 116.5t-140.5 313.5z" />
<glyph unicode="T" horiz-adv-x="1255" d="M199 1270l26 143h1184l-27 -143h-501l-226 -1270h-176l226 1270h-506z" />
<glyph unicode="U" horiz-adv-x="1398" d="M176 367q0 77 17 170l155 876h176l-151 -860q-21 -123 -21 -180q0 -124 74.5 -193t222.5 -69q165 0 262.5 72t141.5 231q11 41 26 125l154 874h176l-158 -891q-13 -75 -26 -127q-104 -424 -600 -424q-222 0 -335.5 102t-113.5 294z" />
<glyph unicode="V" horiz-adv-x="1335" d="M219 1413h191l194 -1280l660 1280h200l-757 -1413h-250z" />
<glyph unicode="W" horiz-adv-x="1951" d="M207 1413h194l80 -1231l535 1211h250l100 -1213l528 1233h195l-643 -1413h-232l-102 1219l-549 -1219h-233z" />
<glyph unicode="X" horiz-adv-x="1284" d="M-45 0l631 723l-346 690h198l277 -565l485 565h209l-614 -694l389 -719h-213l-303 596l-506 -596h-207z" />
<glyph unicode="Y" horiz-adv-x="1189" d="M193 1413h186l274 -696l508 696h207l-653 -864l-97 -549h-176l99 557z" />
<glyph unicode="Z" horiz-adv-x="1210" d="M-2 0l25 135l1036 1135h-780l26 143h1002l-25 -141l-1030 -1129h844l-27 -143h-1071z" />
<glyph unicode="[" horiz-adv-x="628" d="M37 -164l311 1761h334l-20 -114h-216l-270 -1532h215l-20 -115h-334z" />
<glyph unicode="\" horiz-adv-x="620" d="M154 1475h127l243 -1536h-127z" />
<glyph unicode="]" horiz-adv-x="628" d="M-31 -164l21 115h215l270 1532h-215l21 114h333l-311 -1761h-334z" />
<glyph unicode="^" d="M92 440l504 822h141l217 -822h-139l-164 707l-413 -707h-146z" />
<glyph unicode="_" horiz-adv-x="1024" d="M92 -176l21 115h819l-21 -115h-819z" />
<glyph unicode="`" horiz-adv-x="614" d="M104 1413h164l84 -225h-114z" />
<glyph unicode="a" horiz-adv-x="1036" d="M25 252q0 114 57 198.5t158.5 132t235.5 65.5q78 10 166 10q63 0 130 -5l4 29q19 109 19 145q0 68 -42 110t-132 42q-134 0 -201.5 -56t-93.5 -173h-185q35 172 163 268t319 96q177 0 262.5 -71.5t85.5 -196.5q0 -50 -19 -162l-71 -408q-22 -126 -29 -276h-176l8 156 l-78 -99q-90 -86 -284 -86q-124 0 -210.5 72.5t-86.5 208.5zM217 270q0 -78 50.5 -121t135.5 -43q106 0 204 88.5t122 217.5l21 112q-64 7 -123 7q-75 1 -141 -11q-118 -20 -193.5 -84.5t-75.5 -165.5z" />
<glyph unicode="b" horiz-adv-x="1257" d="M57 0l267 1505h176l-105 -594l103 117q53 38 135.5 62t165.5 24q195 0 300 -123.5t105 -318.5q0 -103 -24.5 -202t-76.5 -190t-126 -159.5t-181.5 -109t-234.5 -40.5q-69 0 -141 25.5t-107 64.5l-49 107l-31 -168h-176zM314 376q2 -56 22 -105.5t51.5 -86t83 -57.5 t115.5 -21q80 0 149.5 31.5t119.5 85.5t86 125.5t53.5 152t17.5 163.5q0 144 -66.5 229.5t-195.5 85.5q-149 0 -264 -104t-154 -322l-10 -59q-8 -52 -8 -101v-17z" />
<glyph unicode="c" horiz-adv-x="1087" d="M51 399q0 110 25.5 214.5t77.5 195t125 158.5t174 107.5t219 39.5q190 0 285.5 -104.5t97.5 -288.5h-185q-12 258 -231 258q-171 0 -283 -159.5t-112 -413.5q0 -150 65.5 -225t171.5 -75q113 0 198 61t132 179h184q-80 -191 -211 -283t-329 -92q-181 0 -292.5 111 t-111.5 317z" />
<glyph unicode="d" horiz-adv-x="1255" d="M53 414q0 103 24.5 202t76.5 189.5t126 159t181.5 109t234.5 40.5q69 0 141 -25.5t107 -64.5l49 -106l105 587h176l-266 -1505h-177l31 174l-102 -117q-53 -38 -135.5 -62t-165.5 -24q-99 0 -177 34t-127.5 94.5t-75.5 140.5t-26 174zM246 422q0 -144 66.5 -230 t195.5 -86q149 0 264 104t154 322l10 60q8 52 8 101v17q-2 56 -22 105t-51.5 85.5t-82.5 57.5t-116 21q-99 0 -181.5 -48t-135 -127.5t-81 -178t-28.5 -203.5z" />
<glyph unicode="e" horiz-adv-x="1105" d="M51 397q0 81 15 162.5t45 163t80 151.5t114.5 124t154.5 85t195 31q189 0 299.5 -109.5t110.5 -293.5q0 -113 -33 -222h-784q-4 -58 -4 -86q0 -149 67 -223t178 -74q109 0 198 65t126 179h184q-42 -126 -129 -213.5t-190.5 -126.5t-218.5 -39q-186 0 -297 112t-111 314z M268 625h615q4 54 4 75q0 132 -69 205.5t-189 73.5q-61 0 -114 -19.5t-91.5 -52t-69.5 -78.5t-51.5 -96t-34.5 -108z" />
<glyph unicode="f" horiz-adv-x="559" d="M72 0l166 942h-99l25 135h96l16 90q14 78 31 131q37 118 117 182t190 64q84 0 146 -10l-27 -145q-39 8 -80 8q-130 0 -168 -103q-20 -59 -30 -110l-19 -107h223l-24 -135h-223l-164 -942h-176z" />
<glyph unicode="g" horiz-adv-x="1253" d="M-18 -111h184q17 -112 85.5 -158t192.5 -46q152 0 252 90t140 262l22 119l2 16l-100 -115q-53 -38 -135.5 -62t-165.5 -24q-99 0 -177 34t-127.5 94.5t-75.5 140.5t-26 174q0 103 24.5 202t76.5 189.5t126 159t181.5 109t234.5 40.5q69 0 141 -25.5t107 -64.5l49 -104 l29 165h176l-145 -819q-10 -70 -39 -211q-54 -263 -201 -384.5t-387 -121.5q-204 0 -310.5 78t-133.5 262zM246 422q0 -144 66.5 -230t195.5 -86q70 0 133.5 23.5t121 72t100 132.5t63.5 196v2l10 60q8 52 8 101v17q-2 56 -22 105t-51.5 85.5t-82.5 57.5t-116 21 q-99 0 -181.5 -48t-135 -127.5t-81 -178t-28.5 -203.5z" />
<glyph unicode="h" horiz-adv-x="1218" d="M57 0l267 1516h176l-109 -617l90 125q75 52 143 71t156 19q163 0 247.5 -74t84.5 -204q0 -85 -27 -226l-110 -610h-176l108 598q23 132 23 188q0 88 -50 140q-48 49 -149 49h-12q-68 -2 -127 -28.5t-113 -82.5t-96 -154t-66 -233l-84 -477h-176z" />
<glyph unicode="i" horiz-adv-x="481" d="M57 0l193 1085h176l-193 -1085h-176zM268 1311q0 55 38.5 93t94.5 38q42 0 69.5 -27t27.5 -67q0 -55 -38.5 -93t-94.5 -38q-42 0 -69.5 27t-27.5 67z" />
<glyph unicode="j" horiz-adv-x="415" d="M-215 -426l27 143q20 -3 38 -3q107 0 138 91q12 33 26 113l205 1167h176l-207 -1179q-19 -99 -28 -131q-30 -102 -99.5 -153.5t-191.5 -51.5q-57 0 -84 4zM231 1311q0 55 39 93t95 38q42 0 69 -27t27 -67q0 -55 -38.5 -93t-94.5 -38q-42 0 -69.5 27t-27.5 67z" />
<glyph unicode="k" horiz-adv-x="1060" d="M57 0l267 1505h176l-168 -954l600 534h225l-596 -514l410 -571h-211l-328 473l-135 -119l-64 -354h-176z" />
<glyph unicode="l" horiz-adv-x="507" d="M76 125q0 36 26 180l211 1200h176l-210 -1194q-15 -82 -15 -106q0 -52 27 -67q19 -11 58 -11q15 0 34 2l-23 -129q-55 -8 -127 -8q-76 0 -116.5 29t-40.5 104z" />
<glyph unicode="m" horiz-adv-x="1751" d="M57 0l191 1085h176l-29 -159l92 125q88 63 242 63q120 0 190.5 -55t88.5 -148l118 140q88 63 242 63q139 0 211 -72t72 -188q0 -61 -23 -190l-117 -664h-176l103 582q28 162 28 225q0 84 -47.5 126t-136.5 42q-104 0 -191.5 -118.5t-123.5 -315.5v-4l-95 -537h-176 l103 582q28 162 28 225q0 84 -47.5 126t-136.5 42q-104 0 -192 -120t-123 -318l-95 -537h-176z" />
<glyph unicode="n" horiz-adv-x="1218" d="M57 0l191 1085h176l-33 -186l90 125q75 52 143 71t156 19q163 0 247.5 -74t84.5 -204q0 -85 -27 -226l-110 -610h-176l108 598q23 132 23 188q0 88 -50 140q-48 49 -149 49h-12q-68 -2 -127 -28.5t-113 -82.5t-96 -154t-66 -233l-84 -477h-176z" />
<glyph unicode="o" horiz-adv-x="1204" d="M57 451q0 91 22 181.5t71.5 178t120 154.5t177 108t234.5 41q122 0 214 -39.5t145.5 -108t79.5 -151.5t26 -180q0 -91 -22 -182t-71.5 -178.5t-120 -154.5t-177 -108t-234.5 -41q-98 0 -177 26.5t-132 71t-88.5 106.5t-51.5 130.5t-16 145.5zM250 455q0 -153 74.5 -251 t220.5 -98q97 0 177 47t129.5 123t76 168t26.5 187q0 152 -74.5 250t-220.5 98q-78 0 -145.5 -30.5t-115 -82.5t-81.5 -119.5t-50.5 -142t-16.5 -149.5z" />
<glyph unicode="p" horiz-adv-x="1257" d="M-14 -401l264 1486h176l-31 -174l103 117q53 38 135.5 62t165.5 24q195 0 300 -123.5t105 -318.5q0 -103 -24.5 -202t-76.5 -190t-126 -159.5t-181.5 -109t-234.5 -40.5q-69 0 -141 25.5t-107 64.5l-49 107l-102 -569h-176zM314 376q2 -56 22 -105.5t51.5 -86t83 -57.5 t115.5 -21q80 0 149.5 31.5t119.5 85.5t86 125.5t53.5 152t17.5 163.5q0 144 -66.5 229.5t-195.5 85.5q-149 0 -264 -104t-154 -322l-10 -59q-8 -52 -8 -101v-17z" />
<glyph unicode="q" horiz-adv-x="1255" d="M53 414q0 103 24.5 202t76.5 189.5t126 159t181.5 109t234.5 40.5q69 0 141 -25.5t107 -64.5l49 -106l31 167h176l-264 -1486h-176l102 573l-102 -115q-53 -38 -135.5 -62t-165.5 -24q-99 0 -177 34t-127.5 94.5t-75.5 140.5t-26 174zM246 422q0 -144 66.5 -230 t195.5 -86q149 0 264 104t154 322l10 60q8 52 8 101v17q-2 56 -22 105t-51.5 85.5t-82.5 57.5t-116 21q-99 0 -181.5 -48t-135 -127.5t-81 -178t-28.5 -203.5z" />
<glyph unicode="r" horiz-adv-x="665" d="M57 0l193 1085h176l-31 -170l125 146q77 49 160 49q44 0 72 -14l-25 -133q-13 1 -26 1q-125 0 -221 -80q-104 -88 -138 -266l-109 -618h-176z" />
<glyph unicode="s" horiz-adv-x="923" d="M-20 307h184q19 -213 244 -213q94 0 155.5 50.5t61.5 134.5q0 72 -50.5 117.5t-166.5 80.5q-70 21 -119 44t-93.5 58.5t-67 87t-22.5 119.5q0 141 108 234.5t304 93.5q182 0 271 -90.5t92 -247.5h-185q-10 203 -186 203q-107 0 -159 -50t-52 -124q0 -70 50.5 -112.5 t146.5 -71.5q164 -50 242.5 -125t78.5 -203q0 -146 -113.5 -240t-310.5 -94q-109 0 -191 30.5t-127.5 82t-68.5 110t-26 125.5z" />
<glyph unicode="t" horiz-adv-x="620" d="M98 942l25 135h141l45 252h176l-45 -252h187l-25 -135h-186l-111 -625q-14 -82 -14 -112q-1 -57 41 -74q22 -9 59 -9q32 0 74 7l-25 -129q-59 -16 -131 -16q-203 0 -203 157q0 41 23 168l113 633h-144z" />
<glyph unicode="u" horiz-adv-x="1210" d="M98 250q0 84 27 225l111 610h176l-109 -598q-22 -126 -22 -188q1 -89 51 -140q48 -48 148 -48h12q68 2 127 28t113 82t95.5 154t65.5 233l84 477h176l-190 -1085h-177l33 186l-90 -125q-75 -52 -143 -71t-156 -19q-162 0 -247 74.5t-85 204.5z" />
<glyph unicode="v" horiz-adv-x="1011" d="M72 1085h200l156 -944l490 944h202l-604 -1085h-225z" />
<glyph unicode="w" horiz-adv-x="1556" d="M72 1085h202l91 -901l391 901h223l82 -903l412 903h192l-539 -1085h-208l-80 909l-402 -909h-211z" />
<glyph unicode="x" horiz-adv-x="968" d="M-109 0l480 543l-269 542h209l189 -421l354 421h209l-483 -544l290 -541h-208l-209 416l-355 -416h-207z" />
<glyph unicode="y" horiz-adv-x="1011" d="M-61 -424l24 145q35 -6 64 -6q84 0 142.5 42t115.5 149l18 35l-231 1144h200l156 -956l490 956h202l-604 -1085q-141 -254 -240 -342t-251 -88q-45 0 -86 6z" />
<glyph unicode="z" horiz-adv-x="970" d="M-37 0l23 135l768 803h-582l25 139h790l-24 -141l-762 -797h633l-25 -139h-846z" />
<glyph unicode="{" horiz-adv-x="620" d="M152 659l20 115q63 6 100 21t65.5 55.5t39 114t8.5 192.5q-2 134 12 217t54 134t102 70t164 19h22l-20 -114h-25q-61 0 -94.5 -10t-57.5 -43t-31 -92t-5 -160q2 -96 -8 -171t-35.5 -139.5t-75 -103.5t-121.5 -49q72 -8 112 -48.5t40 -109.5q0 -92 -76 -301 q-63 -172 -63 -229q0 -76 145 -76h25l-21 -115h-22q-125 0 -187.5 39.5t-62.5 140.5q0 40 13.5 88t59.5 172q66 176 66 265q0 52 -34 81.5t-109 36.5z" />
<glyph unicode="|" horiz-adv-x="512" d="M16 -410l361 2048h119l-361 -2048h-119z" />
<glyph unicode="}" horiz-adv-x="620" d="M-57 -164l20 115h25q61 0 94.5 10t57.5 43t31 92t5 160q-2 96 8 171t35.5 139.5t75 103.5t121.5 49q-72 8 -112 48.5t-40 109.5q0 92 76 301q63 172 63 229q0 76 -145 76h-25l21 114h22q125 0 187.5 -39.5t62.5 -140.5q0 -40 -13.5 -88t-59.5 -172q-66 -176 -66 -264 q0 -105 143 -119l-20 -115q-63 -6 -100 -21t-65.5 -55.5t-39 -114t-8.5 -192.5q2 -134 -12 -217t-54 -134t-102 -70t-164 -19h-22z" />
<glyph unicode="~" d="M115 457q48 272 274 272q55 0 96 -17t125 -67q44 -26 67.5 -38.5t55 -23t58.5 -10.5q55 0 84.5 39.5t44.5 116.5h114q-48 -272 -274 -272q-55 0 -96 17t-125 67q-63 37 -102.5 54t-78.5 17q-56 0 -85.5 -39t-43.5 -116h-114z" />
<glyph unicode="&#xa1;" horiz-adv-x="532" d="M-10 -328l229 1045h160l-180 -1045h-209zM211 956q0 67 46 112.5t110 45.5q50 0 80 -29t30 -75q0 -67 -45.5 -112.5t-109.5 -45.5q-50 0 -80.5 29t-30.5 75z" />
<glyph unicode="&#xa2;" d="M61 399q0 130 36 250t103.5 218t173.5 163t236 80l29 160h119l-29 -158q168 -12 253 -115t87 -276h-184q-9 227 -180 254l-152 -864q185 31 268 235h185q-74 -175 -191 -267.5t-287 -105.5l-28 -157h-119l29 157q-159 18 -254 127.5t-95 298.5zM254 406 q0 -128 48.5 -200.5t131.5 -92.5l152 860q-148 -31 -240 -185t-92 -382z" />
<glyph unicode="&#xa3;" d="M-14 0l22 127q81 19 139.5 62t88.5 98t43.5 108t13.5 107q0 57 -23 147h-151l20 115h99q-29 106 -29 229q0 85 31 164.5t89.5 143.5t153.5 102.5t213 38.5q83 0 148.5 -21t108 -56.5t72 -88t43.5 -109.5t19 -127h-188q-8 135 -63 199t-170 64q-116 0 -190.5 -86.5 t-74.5 -219.5q0 -108 39 -233h445l-21 -115h-399q14 -57 14 -121q0 -128 -47.5 -216t-169.5 -169h721l-25 -143h-972z" />
<glyph unicode="&#xa4;" d="M106 287l148 123q-43 73 -43 168q0 155 100 270l-90 110l94 80l95 -108q93 55 219 55q110 0 196 -76l148 125l69 -84l-149 -127q43 -78 43 -168q0 -150 -98 -266l90 -113l-94 -79l-95 110q-97 -59 -225 -59q-109 0 -195 76l-143 -121zM336 590q0 -102 57 -162.5 t144 -60.5q62 0 114.5 24t86.5 63.5t53.5 88.5t19.5 100q0 101 -59 162t-146 61q-121 0 -195.5 -84t-74.5 -192z" />
<glyph unicode="&#xa5;" d="M94 371l21 114h331l19 107l-10 24h-318l21 115h254l-252 682h211l215 -678l461 678h206l-501 -682h245l-20 -115h-311l-27 -38l-16 -93h331l-20 -114h-332l-65 -371h-177l66 371h-332z" />
<glyph unicode="&#xa6;" horiz-adv-x="512" d="M31 -328l123 697h118l-122 -697h-119zM215 717l123 696h119l-123 -696h-119z" />
<glyph unicode="&#xa7;" horiz-adv-x="1146" d="M37 0h184q10 -111 75 -166t155 -55q111 0 174 50t63 148q0 85 -59.5 138.5t-212.5 109.5q-82 30 -139.5 60.5t-106 73t-72.5 99t-24 128.5q0 105 71 194t207 131q-57 75 -57 185q0 64 26.5 125t76 111t129.5 80t178 30q156 0 251 -91.5t109 -248.5h-184q-9 97 -61.5 151 t-141.5 54q-82 0 -136.5 -55.5t-54.5 -149.5q0 -148 238 -217q184 -54 273 -144.5t89 -224.5q0 -110 -72 -199.5t-198 -128.5q64 -80 64 -192q0 -160 -129.5 -256t-329.5 -96q-73 0 -138 21.5t-118.5 63.5t-87.5 112t-41 159zM266 602q0 -82 60.5 -134t183.5 -95 q118 -45 168 -72q103 7 160 63t57 138t-63 135.5t-201 99.5q-85 25 -158 68q-101 -15 -154 -70t-53 -133z" />
<glyph unicode="&#xa8;" horiz-adv-x="614" d="M61 1274q0 42 35.5 75t77.5 33q35 0 57.5 -22.5t22.5 -56.5q0 -42 -35.5 -75.5t-77.5 -33.5q-35 0 -57.5 23t-22.5 57zM360 1274q0 42 35.5 75t77.5 33q35 0 57.5 -22.5t22.5 -56.5q0 -42 -35.5 -75.5t-77.5 -33.5q-35 0 -57.5 23t-22.5 57z" />
<glyph unicode="&#xa9;" horiz-adv-x="1716" d="M74 727q0 166 61 314t165.5 254t250 167.5t307.5 61.5t307.5 -61.5t250 -167.5t165.5 -254t61 -314t-61 -314t-165.5 -254t-250 -167.5t-307.5 -61.5t-307.5 61.5t-250 167.5t-165.5 254t-61 314zM201 727q0 -190 86.5 -345.5t237 -244t333.5 -88.5q137 0 259 52 t209.5 142t138.5 216t51 268q0 141 -51 267t-138.5 216t-209.5 142.5t-259 52.5q-183 0 -333.5 -89t-237 -244.5t-86.5 -344.5zM428 723q0 219 121 348t321 129q163 0 269.5 -90t136.5 -240h-189q-16 87 -69 139t-148 52q-118 0 -181.5 -89t-63.5 -243t66.5 -245t178.5 -91 q86 0 144 55t71 136h189q-37 -153 -141.5 -241.5t-280.5 -88.5q-189 0 -306.5 129t-117.5 340z" />
<glyph unicode="&#xab;" horiz-adv-x="1099" d="M233 508l340 340h170l-354 -354l211 -326h-145zM561 508l340 340h170l-354 -354l211 -326h-146z" />
<glyph unicode="&#xac;" d="M166 672l20 114h756l-61 -356h-119l41 242h-637z" />
<glyph unicode="&#xad;" horiz-adv-x="561" d="M55 522l21 115h430l-21 -115h-430z" />
<glyph unicode="&#xae;" horiz-adv-x="1040" d="M76 1087q0 125 57.5 232.5t172 176.5t263.5 69q183 0 291.5 -108.5t108.5 -274.5q0 -93 -34.5 -178.5t-96 -152t-156.5 -106.5t-207 -40q-183 0 -291 108t-108 274zM174 1087q0 -128 85.5 -208t232.5 -80q172 0 275 111.5t103 271.5q0 128 -85 208t-232 80 q-115 0 -203 -53.5t-132 -139.5t-44 -190zM332 932l74 418h143q37 0 53 -2q54 -6 83.5 -35t29.5 -76q0 -41 -24.5 -71.5t-74.5 -43.5q51 -18 48 -80q-4 -63 14 -110h-115q-8 47 -8 100q0 39 -49 39h-47l-25 -139h-102zM473 1157h41q23 0 35 2q57 7 57 58q0 40 -41 47 q-12 2 -33 2h-40z" />
<glyph unicode="&#xaf;" horiz-adv-x="614" d="M51 1237l21 106h491l-20 -106h-492z" />
<glyph unicode="&#xb0;" horiz-adv-x="616" d="M188 1255q0 118 75 198.5t206 80.5q99 0 161 -60t62 -149q0 -118 -74.5 -198t-205.5 -80q-100 0 -162 59.5t-62 148.5zM317 1266q0 -51 29.5 -78t77.5 -27q61 0 100 40t39 114q0 51 -29 77.5t-77 26.5q-61 0 -100.5 -39.5t-39.5 -113.5z" />
<glyph unicode="&#xb1;" d="M49 0l21 115h860l-21 -115h-860zM154 596l20 115h371l63 360h119l-63 -360h370l-20 -115h-371l-65 -369h-119l65 369h-370z" />
<glyph unicode="&#xb4;" horiz-adv-x="614" d="M217 1188l166 225h164l-215 -225h-115z" />
<glyph unicode="&#xb6;" horiz-adv-x="1142" d="M160 981q0 54 14 110t45 112t76 100t112.5 73.5t147.5 34.5q37 2 117 2h473l-291 -1638h-119l271 1523h-189l-270 -1523h-119l156 880h-47q-80 0 -115 2q-83 5 -144 53.5t-89.5 118.5t-28.5 152z" />
<glyph unicode="&#xb7;" horiz-adv-x="413" d="M78 598q0 68 50.5 118t117.5 50q53 0 86 -32.5t33 -82.5q0 -68 -50.5 -118t-117.5 -50q-53 0 -86 32.5t-33 82.5z" />
<glyph unicode="&#xb8;" horiz-adv-x="614" d="M59 -412l17 82q38 -14 104 -14q71 0 108.5 27t37.5 71q0 47 -48 71.5t-135 14.5l127 178h109l-74 -100q67 -12 103 -53.5t36 -100.5q0 -98 -76 -146t-198 -48q-70 0 -111 18z" />
<glyph unicode="&#xbb;" horiz-adv-x="1099" d="M16 168l355 354l-211 326h145l221 -340l-340 -340h-170zM344 168l354 354l-211 326h146l221 -340l-340 -340h-170z" />
<glyph unicode="&#xbf;" horiz-adv-x="1132" d="M78 -51q0 124 65 231.5t232 255.5q97 85 141 145t66 136h176q-15 -85 -59 -151t-164 -183q-157 -153 -211 -241t-54 -177q0 -87 57.5 -134.5t155.5 -47.5q121 0 204 72.5t108 218.5h184q-30 -198 -172.5 -314t-345.5 -116q-179 0 -281 85t-102 220zM580 956 q0 67 45.5 112.5t109.5 45.5q50 0 80.5 -29t30.5 -75q0 -67 -46 -112.5t-110 -45.5q-50 0 -80 29t-30 75z" />
<glyph unicode="&#xc0;" horiz-adv-x="1323" d="M-35 0l758 1413h250l237 -1413h-190l-78 500h-518l-258 -500h-201zM498 643h424l-99 631zM698 1700h164l78 -193h-115z" />
<glyph unicode="&#xc1;" horiz-adv-x="1323" d="M-35 0l758 1413h250l237 -1413h-190l-78 500h-518l-258 -500h-201zM498 643h424l-99 631zM807 1507l143 193h164l-192 -193h-115z" />
<glyph unicode="&#xc2;" horiz-adv-x="1323" d="M-35 0l758 1413h250l237 -1413h-190l-78 500h-518l-258 -500h-201zM498 643h424l-99 631zM678 1507l170 193h121l104 -193h-137l-43 113l-80 -113h-135z" />
<glyph unicode="&#xc3;" horiz-adv-x="1323" d="M-35 0l758 1413h250l237 -1413h-190l-78 500h-518l-258 -500h-201zM498 643h424l-99 631zM662 1536q14 82 46.5 113.5t86.5 31.5q46 0 120 -26q68 -23 86 -23q33 0 41 41h78q-14 -82 -46.5 -113.5t-86.5 -31.5q-47 0 -121 26q-68 23 -86 23q-33 0 -41 -41h-77z" />
<glyph unicode="&#xc4;" horiz-adv-x="1323" d="M-35 0l758 1413h250l237 -1413h-190l-78 500h-518l-258 -500h-201zM498 643h424l-99 631zM651 1589q0 42 35.5 75.5t77.5 33.5q35 0 57.5 -23t22.5 -57q0 -42 -35.5 -75.5t-77.5 -33.5q-35 0 -57.5 23t-22.5 57zM938 1589q0 42 35.5 75.5t77.5 33.5q35 0 57 -23t22 -57 q0 -42 -35 -75.5t-77 -33.5q-35 0 -57.5 23t-22.5 57z" />
<glyph unicode="&#xc5;" horiz-adv-x="1323" d="M-35 0l758 1413h250l237 -1413h-190l-78 500h-518l-258 -500h-201zM498 643h424l-99 631zM709 1604q0 86 61 136t148 50q78 0 122.5 -38.5t44.5 -98.5q0 -86 -60.5 -136.5t-147.5 -50.5q-78 0 -123 39t-45 99zM811 1612q0 -31 19 -51.5t51 -20.5q43 0 72.5 28t29.5 77 q0 31 -19 51t-51 20q-43 0 -72.5 -27.5t-29.5 -76.5z" />
<glyph unicode="&#xc6;" horiz-adv-x="1902" d="M-164 0l1086 1413h1042l-27 -143h-772l-55 -492h680l-25 -143h-673l-56 -492h725l-26 -143h-891l59 500h-467l-379 -500h-221zM545 643h375l71 590z" />
<glyph unicode="&#xc7;" horiz-adv-x="1437" d="M111 547q0 78 14 160.5t45 170.5t76.5 169t112 153.5t147 126t187.5 84.5t227 31q242 0 368 -119.5t139 -318.5h-188q-12 135 -93 217t-247 82q-118 0 -217.5 -45t-168 -121t-117 -176t-71 -208.5t-22.5 -220.5q0 -193 104 -307t269 -114q160 0 274.5 82.5t167.5 212.5 h189q-182 -435 -654 -435h-6l-39 -53q67 -12 103.5 -53.5t36.5 -100.5q0 -98 -76.5 -146t-198.5 -48q-71 0 -111 18l17 82q38 -14 104 -14q71 0 108.5 27t37.5 71q0 47 -48 71.5t-135 14.5l99 140q-211 29 -322.5 176.5t-111.5 390.5z" />
<glyph unicode="&#xc8;" horiz-adv-x="1214" d="M106 0l250 1413h920l-27 -143h-741l-88 -492h682l-25 -143h-682l-88 -492h766l-26 -143h-941zM680 1700h164l78 -193h-115z" />
<glyph unicode="&#xc9;" horiz-adv-x="1214" d="M106 0l250 1413h920l-27 -143h-741l-88 -492h682l-25 -143h-682l-88 -492h766l-26 -143h-941zM788 1507l144 193h164l-193 -193h-115z" />
<glyph unicode="&#xca;" horiz-adv-x="1214" d="M106 0l250 1413h920l-27 -143h-741l-88 -492h682l-25 -143h-682l-88 -492h766l-26 -143h-941zM659 1507l170 193h121l105 -193h-137l-44 113l-79 -113h-136z" />
<glyph unicode="&#xcb;" horiz-adv-x="1214" d="M106 0l250 1413h920l-27 -143h-741l-88 -492h682l-25 -143h-682l-88 -492h766l-26 -143h-941zM633 1589q0 42 35 75.5t77 33.5q35 0 57.5 -23t22.5 -57q0 -42 -35 -75.5t-77 -33.5q-35 0 -57.5 23t-22.5 57zM920 1589q0 42 35 75.5t77 33.5q35 0 57.5 -23t22.5 -57 q0 -42 -35.5 -75.5t-77.5 -33.5q-35 0 -57 23t-22 57z" />
<glyph unicode="&#xcc;" horiz-adv-x="538" d="M106 0l250 1413h176l-249 -1413h-177zM285 1700h164l77 -193h-114z" />
<glyph unicode="&#xcd;" horiz-adv-x="538" d="M106 0l250 1413h176l-249 -1413h-177zM393 1507l144 193h163l-192 -193h-115z" />
<glyph unicode="&#xce;" horiz-adv-x="538" d="M106 0l250 1413h176l-249 -1413h-177zM264 1507l170 193h121l104 -193h-137l-43 113l-80 -113h-135z" />
<glyph unicode="&#xcf;" horiz-adv-x="538" d="M106 0l250 1413h176l-249 -1413h-177zM238 1589q0 42 35 75.5t77 33.5q35 0 57.5 -23t22.5 -57q0 -42 -35.5 -75.5t-77.5 -33.5q-35 0 -57 23t-22 57zM524 1589q0 42 35.5 75.5t77.5 33.5q35 0 57.5 -23t22.5 -57q0 -42 -35.5 -75.5t-77.5 -33.5q-35 0 -57.5 23t-22.5 57 z" />
<glyph unicode="&#xd0;" horiz-adv-x="1456" d="M23 625l20 114h195l118 674h363q108 0 178 -6q108 -10 199.5 -51.5t162.5 -114.5t111.5 -185.5t40.5 -252.5q0 -112 -28.5 -219.5t-89 -206t-147 -176t-209 -129.5t-267.5 -66q-74 -6 -183 -6h-381l111 625h-194zM307 143h217q92 0 160 9q136 19 240.5 80t167 150.5 t94 194.5t31.5 222q0 209 -97 325t-252 138q-60 8 -155 8h-205l-94 -531h252l-21 -114h-252z" />
<glyph unicode="&#xd1;" horiz-adv-x="1468" d="M106 0l250 1413h271l440 -1245l219 1245h176l-250 -1413h-270l-444 1245l-215 -1245h-177zM713 1536q14 82 46.5 113.5t86.5 31.5q47 0 121 -26q68 -23 86 -23q33 0 41 41h77q-14 -82 -46.5 -113.5t-86.5 -31.5q-46 0 -120 26q-68 23 -87 23q-32 0 -40 -41h-78z" />
<glyph unicode="&#xd2;" horiz-adv-x="1529" d="M121 584q0 130 29 251.5t92 232.5t154 193.5t224.5 131.5t294.5 49q137 0 246.5 -48.5t179.5 -133t107 -194.5t37 -237q0 -130 -29 -251.5t-92 -232.5t-154.5 -193.5t-225 -131.5t-294.5 -49q-137 0 -246.5 48.5t-179 133t-106.5 194.5t-37 237zM313 584 q0 -215 110.5 -344t303.5 -129q112 0 207.5 44t160 116t110 166t66.5 193.5t21 198.5q0 215 -111 344.5t-302 129.5q-112 0 -207.5 -44t-160.5 -116.5t-110.5 -166.5t-66.5 -193.5t-21 -198.5zM756 1700h164l77 -193h-114z" />
<glyph unicode="&#xd3;" horiz-adv-x="1529" d="M121 584q0 130 29 251.5t92 232.5t154 193.5t224.5 131.5t294.5 49q137 0 246.5 -48.5t179.5 -133t107 -194.5t37 -237q0 -130 -29 -251.5t-92 -232.5t-154.5 -193.5t-225 -131.5t-294.5 -49q-137 0 -246.5 48.5t-179 133t-106.5 194.5t-37 237zM313 584 q0 -215 110.5 -344t303.5 -129q112 0 207.5 44t160 116t110 166t66.5 193.5t21 198.5q0 215 -111 344.5t-302 129.5q-112 0 -207.5 -44t-160.5 -116.5t-110.5 -166.5t-66.5 -193.5t-21 -198.5zM864 1507l144 193h163l-192 -193h-115z" />
<glyph unicode="&#xd4;" horiz-adv-x="1529" d="M121 584q0 130 29 251.5t92 232.5t154 193.5t224.5 131.5t294.5 49q137 0 246.5 -48.5t179.5 -133t107 -194.5t37 -237q0 -130 -29 -251.5t-92 -232.5t-154.5 -193.5t-225 -131.5t-294.5 -49q-137 0 -246.5 48.5t-179 133t-106.5 194.5t-37 237zM313 584 q0 -215 110.5 -344t303.5 -129q112 0 207.5 44t160 116t110 166t66.5 193.5t21 198.5q0 215 -111 344.5t-302 129.5q-112 0 -207.5 -44t-160.5 -116.5t-110.5 -166.5t-66.5 -193.5t-21 -198.5zM735 1507l170 193h121l104 -193h-137l-43 113l-80 -113h-135z" />
<glyph unicode="&#xd5;" horiz-adv-x="1529" d="M121 584q0 130 29 251.5t92 232.5t154 193.5t224.5 131.5t294.5 49q137 0 246.5 -48.5t179.5 -133t107 -194.5t37 -237q0 -130 -29 -251.5t-92 -232.5t-154.5 -193.5t-225 -131.5t-294.5 -49q-137 0 -246.5 48.5t-179 133t-106.5 194.5t-37 237zM313 584 q0 -215 110.5 -344t303.5 -129q112 0 207.5 44t160 116t110 166t66.5 193.5t21 198.5q0 215 -111 344.5t-302 129.5q-112 0 -207.5 -44t-160.5 -116.5t-110.5 -166.5t-66.5 -193.5t-21 -198.5zM719 1536q14 82 46.5 113.5t86.5 31.5q47 0 121 -26q68 -23 86 -23q33 0 41 41 h78q-14 -81 -47 -113t-87 -32q-46 0 -120 26q-68 23 -86 23q-33 0 -41 -41h-78z" />
<glyph unicode="&#xd6;" horiz-adv-x="1529" d="M121 584q0 130 29 251.5t92 232.5t154 193.5t224.5 131.5t294.5 49q137 0 246.5 -48.5t179.5 -133t107 -194.5t37 -237q0 -130 -29 -251.5t-92 -232.5t-154.5 -193.5t-225 -131.5t-294.5 -49q-137 0 -246.5 48.5t-179 133t-106.5 194.5t-37 237zM313 584 q0 -215 110.5 -344t303.5 -129q112 0 207.5 44t160 116t110 166t66.5 193.5t21 198.5q0 215 -111 344.5t-302 129.5q-112 0 -207.5 -44t-160.5 -116.5t-110.5 -166.5t-66.5 -193.5t-21 -198.5zM709 1589q0 42 35 75.5t77 33.5q35 0 57.5 -23t22.5 -57q0 -42 -35.5 -75.5 t-77.5 -33.5q-35 0 -57 23t-22 57zM995 1589q0 42 35.5 75.5t77.5 33.5q35 0 57.5 -23t22.5 -57q0 -42 -35.5 -75.5t-77.5 -33.5q-35 0 -57.5 23t-22.5 57z" />
<glyph unicode="&#xd7;" d="M150 369l331 282l-225 275l100 84l226 -275l331 283l84 -100l-331 -283l225 -275l-100 -84l-226 275l-332 -283z" />
<glyph unicode="&#xd8;" horiz-adv-x="1531" d="M12 106l189 160q-70 137 -70 318q0 130 29 251.5t92 232.5t154.5 193.5t225 131.5t294.5 49q277 0 434 -191l164 140l69 -84l-174 -148q76 -143 76 -330q0 -130 -29 -251.5t-92 -232.5t-154.5 -193.5t-225 -131.5t-294.5 -49q-285 0 -442 201l-176 -149zM324 584 q0 -98 26 -191l871 742q-53 81 -138 124.5t-194 43.5q-112 0 -207.5 -44t-160 -116.5t-110 -166.5t-66.5 -193.5t-21 -198.5zM397 291q112 -180 340 -180q112 0 207.5 44t160.5 116t110.5 166t66.5 193.5t21 198.5q0 112 -31 203z" />
<glyph unicode="&#xd9;" horiz-adv-x="1398" d="M176 367q0 77 17 170l155 876h176l-151 -860q-21 -123 -21 -180q0 -124 74.5 -193t222.5 -69q165 0 262.5 72t141.5 231q11 41 26 125l154 874h176l-158 -891q-13 -75 -26 -127q-104 -424 -600 -424q-222 0 -335.5 102t-113.5 294zM719 1700h164l78 -193h-115z" />
<glyph unicode="&#xda;" horiz-adv-x="1398" d="M176 367q0 77 17 170l155 876h176l-151 -860q-21 -123 -21 -180q0 -124 74.5 -193t222.5 -69q165 0 262.5 72t141.5 231q11 41 26 125l154 874h176l-158 -891q-13 -75 -26 -127q-104 -424 -600 -424q-222 0 -335.5 102t-113.5 294zM827 1507l144 193h164l-193 -193h-115z " />
<glyph unicode="&#xdb;" horiz-adv-x="1398" d="M176 367q0 77 17 170l155 876h176l-151 -860q-21 -123 -21 -180q0 -124 74.5 -193t222.5 -69q165 0 262.5 72t141.5 231q11 41 26 125l154 874h176l-158 -891q-13 -75 -26 -127q-104 -424 -600 -424q-222 0 -335.5 102t-113.5 294zM698 1507l170 193h121l105 -193h-138 l-43 113l-79 -113h-136z" />
<glyph unicode="&#xdc;" horiz-adv-x="1398" d="M176 367q0 77 17 170l155 876h176l-151 -860q-21 -123 -21 -180q0 -124 74.5 -193t222.5 -69q165 0 262.5 72t141.5 231q11 41 26 125l154 874h176l-158 -891q-13 -75 -26 -127q-104 -424 -600 -424q-222 0 -335.5 102t-113.5 294zM672 1589q0 42 35 75.5t77 33.5 q35 0 57.5 -23t22.5 -57q0 -42 -35 -75.5t-77 -33.5q-35 0 -57.5 23t-22.5 57zM958 1589q0 42 35.5 75.5t77.5 33.5q35 0 57.5 -23t22.5 -57q0 -42 -35.5 -75.5t-77.5 -33.5q-35 0 -57.5 23t-22.5 57z" />
<glyph unicode="&#xdd;" horiz-adv-x="1189" d="M193 1413h186l274 -696l508 696h207l-653 -864l-97 -549h-176l99 557zM729 1507l143 193h164l-192 -193h-115z" />
<glyph unicode="&#xde;" horiz-adv-x="1247" d="M106 0l250 1413h176l-32 -180h272q121 0 184 -8q135 -18 215 -97t80 -210q0 -43 -8 -82q-30 -168 -146.5 -271.5t-279.5 -124.5q-66 -8 -186 -8h-273l-75 -432h-177zM385 580h272q109 0 160 10q201 45 238 241q4 20 4 56q0 151 -156 188q-49 10 -155 10h-273z" />
<glyph unicode="&#xdf;" horiz-adv-x="1204" d="M57 0l174 983q12 69 27 126.5t38.5 116.5t53 105t71.5 87t93.5 68t119.5 42.5t148 15.5q195 0 298.5 -87t103.5 -228q0 -134 -92 -254q-110 -53 -149.5 -95.5t-39.5 -95.5q0 -43 19 -79.5t69 -86.5q137 -130 137 -286q0 -66 -28.5 -126t-82.5 -108.5t-140.5 -77 t-194.5 -28.5q-100 0 -197 20l25 142q101 -27 188 -27q65 0 113.5 18.5t74.5 49.5t38 64t12 69q0 106 -98 207q-71 74 -97 122.5t-26 122.5q0 162 221 273q55 83 55 176q0 80 -57 128t-170 48q-69 0 -125.5 -24t-93 -61.5t-64.5 -93t-43.5 -109t-27.5 -118.5l-177 -999h-176 z" />
<glyph unicode="&#xe0;" horiz-adv-x="1036" d="M25 252q0 114 57 198.5t158.5 132t236 65.5t295.5 5l4 29q19 109 19 145q0 68 -42 110t-132 42q-134 0 -201.5 -56t-93.5 -173h-185q35 172 163 268t319 96q177 0 262.5 -71.5t85.5 -196.5q0 -50 -19 -162l-71 -408q-22 -126 -29 -276h-176l8 156l-78 -99 q-90 -86 -284 -86q-124 0 -210.5 72.5t-86.5 208.5zM217 270q0 -78 50.5 -121t135.5 -43q106 0 204 88.5t122 217.5l21 112q-146 16 -264 -4.5t-193.5 -84.5t-75.5 -165zM471 1413h164l84 -225h-115z" />
<glyph unicode="&#xe1;" horiz-adv-x="1036" d="M25 252q0 114 57 198.5t158.5 132t236 65.5t295.5 5l4 29q19 109 19 145q0 68 -42 110t-132 42q-134 0 -201.5 -56t-93.5 -173h-185q35 172 163 268t319 96q177 0 262.5 -71.5t85.5 -196.5q0 -50 -19 -162l-71 -408q-22 -126 -29 -276h-176l8 156l-78 -99 q-90 -86 -284 -86q-124 0 -210.5 72.5t-86.5 208.5zM217 270q0 -78 50.5 -121t135.5 -43q106 0 204 88.5t122 217.5l21 112q-146 16 -264 -4.5t-193.5 -84.5t-75.5 -165zM584 1188l166 225h163l-215 -225h-114z" />
<glyph unicode="&#xe2;" horiz-adv-x="1036" d="M25 252q0 114 57 198.5t158.5 132t236 65.5t295.5 5l4 29q19 109 19 145q0 68 -42 110t-132 42q-134 0 -201.5 -56t-93.5 -173h-185q35 172 163 268t319 96q177 0 262.5 -71.5t85.5 -196.5q0 -50 -19 -162l-71 -408q-22 -126 -29 -276h-176l8 156l-78 -99 q-90 -86 -284 -86q-124 0 -210.5 72.5t-86.5 208.5zM217 270q0 -78 50.5 -121t135.5 -43q106 0 204 88.5t122 217.5l21 112q-146 16 -264 -4.5t-193.5 -84.5t-75.5 -165zM457 1188l178 225h121l96 -225h-131l-45 129l-90 -129h-129z" />
<glyph unicode="&#xe3;" horiz-adv-x="1036" d="M25 252q0 114 57 198.5t158.5 132t236 65.5t295.5 5l4 29q19 109 19 145q0 68 -42 110t-132 42q-134 0 -201.5 -56t-93.5 -173h-185q35 172 163 268t319 96q177 0 262.5 -71.5t85.5 -196.5q0 -50 -19 -162l-71 -408q-22 -126 -29 -276h-176l8 156l-78 -99 q-90 -86 -284 -86q-124 0 -210.5 72.5t-86.5 208.5zM217 270q0 -78 50.5 -121t135.5 -43q106 0 204 88.5t122 217.5l21 112q-146 16 -264 -4.5t-193.5 -84.5t-75.5 -165zM442 1229q14 82 46.5 113.5t86.5 31.5q47 0 121 -26q68 -23 86 -23q33 0 41 41h78 q-14 -82 -46.5 -113.5t-86.5 -31.5q-47 0 -121 26q-68 23 -86 23q-33 0 -41 -41h-78z" />
<glyph unicode="&#xe4;" horiz-adv-x="1036" d="M25 252q0 114 57 198.5t158.5 132t236 65.5t295.5 5l4 29q19 109 19 145q0 68 -42 110t-132 42q-134 0 -201.5 -56t-93.5 -173h-185q35 172 163 268t319 96q177 0 262.5 -71.5t85.5 -196.5q0 -50 -19 -162l-71 -408q-22 -126 -29 -276h-176l8 156l-78 -99 q-90 -86 -284 -86q-124 0 -210.5 72.5t-86.5 208.5zM217 270q0 -78 50.5 -121t135.5 -43q106 0 204 88.5t122 217.5l21 112q-146 16 -264 -4.5t-193.5 -84.5t-75.5 -165zM424 1274q0 42 35.5 75t77.5 33q35 0 57 -22.5t22 -56.5q0 -42 -35 -75.5t-77 -33.5q-35 0 -57.5 23 t-22.5 57zM723 1274q0 42 35.5 75t77.5 33q35 0 57 -22.5t22 -56.5q0 -42 -35 -75.5t-77 -33.5q-35 0 -57.5 23t-22.5 57z" />
<glyph unicode="&#xe5;" horiz-adv-x="1036" d="M25 252q0 114 57 198.5t158.5 132t236 65.5t295.5 5l4 29q19 109 19 145q0 68 -42 110t-132 42q-134 0 -201.5 -56t-93.5 -173h-185q35 172 163 268t319 96q177 0 262.5 -71.5t85.5 -196.5q0 -50 -19 -162l-71 -408q-22 -126 -29 -276h-176l8 156l-78 -99 q-90 -86 -284 -86q-124 0 -210.5 72.5t-86.5 208.5zM217 270q0 -78 50.5 -121t135.5 -43q106 0 204 88.5t122 217.5l21 112q-146 16 -264 -4.5t-193.5 -84.5t-75.5 -165zM487 1296q0 87 65 146t157 59q72 0 115.5 -38.5t43.5 -100.5q0 -87 -64.5 -146t-156.5 -59 q-72 0 -116 38.5t-44 100.5zM592 1305q0 -35 18.5 -54.5t51.5 -19.5q43 0 72.5 34t29.5 89q0 35 -18.5 54t-51.5 19q-43 0 -72.5 -33.5t-29.5 -88.5z" />
<glyph unicode="&#xe6;" horiz-adv-x="1796" d="M23 240q0 86 37 154t116.5 121t217 81.5t325.5 28.5h69q21 121 21 157q0 197 -193 197q-224 0 -274 -229h-184q35 173 162.5 268.5t318.5 95.5q279 0 328 -184q167 184 405 184q187 0 285 -108t98 -295q0 -113 -33 -222h-782q-6 -46 -6 -86q0 -150 67 -223.5t179 -73.5 q108 0 197 65t126 179h185q-42 -126 -129 -213.5t-190.5 -126.5t-219.5 -39q-292 0 -365 236l-75 -111q-85 -71 -164.5 -98t-206.5 -27q-136 0 -225.5 74t-89.5 195zM219 260q0 -73 49.5 -113.5t137.5 -40.5q126 0 224 88.5t124 233.5l10 61q-58 3 -113 3q-214 0 -323 -54.5 t-109 -177.5zM965 625h608q5 37 3 78t-6 80.5t-20.5 75t-41 62t-66 42.5t-96.5 16q-133 0 -233.5 -91.5t-147.5 -262.5z" />
<glyph unicode="&#xe7;" horiz-adv-x="1087" d="M51 399q0 110 25.5 214.5t77.5 195t125 158.5t174 107.5t219 39.5q190 0 285.5 -104.5t97.5 -288.5h-185q-12 258 -231 258q-171 0 -283 -159.5t-112 -413.5q0 -150 65.5 -225t171.5 -75q113 0 198 61t132 179h184q-77 -184 -202.5 -276.5t-313.5 -98.5l-39 -53 q67 -12 103.5 -53.5t36.5 -100.5q0 -98 -76.5 -146t-198.5 -48q-69 0 -110 18l16 82q38 -14 104 -14q71 0 108.5 27t37.5 71q0 47 -47.5 71.5t-134.5 14.5l98 137q-150 22 -238 131t-88 291z" />
<glyph unicode="&#xe8;" horiz-adv-x="1105" d="M51 397q0 81 15 162.5t45 163t80 151.5t114.5 124t154.5 85t195 31q189 0 299.5 -109.5t110.5 -293.5q0 -113 -33 -222h-784q-4 -58 -4 -86q0 -149 67 -223t178 -74q109 0 198 65t126 179h184q-42 -126 -129 -213.5t-190.5 -126.5t-218.5 -39q-186 0 -297 112t-111 314z M268 625h615q4 54 4 75q0 132 -69 205.5t-189 73.5q-61 0 -114 -19.5t-91.5 -52t-69.5 -78.5t-51.5 -96t-34.5 -108zM504 1413h164l84 -225h-115z" />
<glyph unicode="&#xe9;" horiz-adv-x="1105" d="M51 397q0 81 15 162.5t45 163t80 151.5t114.5 124t154.5 85t195 31q189 0 299.5 -109.5t110.5 -293.5q0 -113 -33 -222h-784q-4 -58 -4 -86q0 -149 67 -223t178 -74q109 0 198 65t126 179h184q-42 -126 -129 -213.5t-190.5 -126.5t-218.5 -39q-186 0 -297 112t-111 314z M268 625h615q4 54 4 75q0 132 -69 205.5t-189 73.5q-61 0 -114 -19.5t-91.5 -52t-69.5 -78.5t-51.5 -96t-34.5 -108zM616 1188l166 225h164l-215 -225h-115z" />
<glyph unicode="&#xea;" horiz-adv-x="1105" d="M51 397q0 81 15 162.5t45 163t80 151.5t114.5 124t154.5 85t195 31q189 0 299.5 -109.5t110.5 -293.5q0 -113 -33 -222h-784q-4 -58 -4 -86q0 -149 67 -223t178 -74q109 0 198 65t126 179h184q-42 -126 -129 -213.5t-190.5 -126.5t-218.5 -39q-186 0 -297 112t-111 314z M268 625h615q4 54 4 75q0 132 -69 205.5t-189 73.5q-61 0 -114 -19.5t-91.5 -52t-69.5 -78.5t-51.5 -96t-34.5 -108zM489 1188l179 225h120l97 -225h-131l-45 129l-91 -129h-129z" />
<glyph unicode="&#xeb;" horiz-adv-x="1105" d="M51 397q0 81 15 162.5t45 163t80 151.5t114.5 124t154.5 85t195 31q189 0 299.5 -109.5t110.5 -293.5q0 -113 -33 -222h-784q-4 -58 -4 -86q0 -149 67 -223t178 -74q109 0 198 65t126 179h184q-42 -126 -129 -213.5t-190.5 -126.5t-218.5 -39q-186 0 -297 112t-111 314z M268 625h615q4 54 4 75q0 132 -69 205.5t-189 73.5q-61 0 -114 -19.5t-91.5 -52t-69.5 -78.5t-51.5 -96t-34.5 -108zM457 1274q0 42 35 75t77 33q35 0 57.5 -22.5t22.5 -56.5q0 -42 -35 -75.5t-77 -33.5q-35 0 -57.5 23t-22.5 57zM756 1274q0 42 35 75t77 33 q35 0 57.5 -22.5t22.5 -56.5q0 -42 -35 -75.5t-77 -33.5q-35 0 -57.5 23t-22.5 57z" />
<glyph unicode="&#xec;" horiz-adv-x="481" d="M57 0l193 1085h176l-193 -1085h-176zM174 1413h164l84 -225h-115z" />
<glyph unicode="&#xed;" horiz-adv-x="481" d="M57 0l193 1085h176l-193 -1085h-176zM287 1188l166 225h163l-215 -225h-114z" />
<glyph unicode="&#xee;" horiz-adv-x="481" d="M57 0l193 1085h176l-193 -1085h-176zM160 1188l178 225h121l96 -225h-131l-45 129l-90 -129h-129z" />
<glyph unicode="&#xef;" horiz-adv-x="481" d="M57 0l193 1085h176l-193 -1085h-176zM127 1274q0 42 35.5 75t77.5 33q35 0 57 -22.5t22 -56.5q0 -42 -35 -75.5t-77 -33.5q-35 0 -57.5 23t-22.5 57zM426 1274q0 42 35.5 75t77.5 33q35 0 57 -22.5t22 -56.5q0 -42 -35 -75.5t-77 -33.5q-35 0 -57.5 23t-22.5 57z" />
<glyph unicode="&#xf0;" horiz-adv-x="1218" d="M51 420q0 90 22.5 184t71 186t116 163.5t166.5 116t214 44.5q76 0 127.5 -13t101.5 -46l60 -107q-7 197 -78 307l-281 -108l-36 100l241 92q-59 49 -137 82l123 105q112 -51 178 -123l154 59l36 -100l-124 -49q98 -173 98 -555q0 -118 -20.5 -227.5t-68.5 -212.5 t-118.5 -179t-178 -122t-239.5 -46q-106 0 -189 35.5t-134.5 97t-78 142t-26.5 174.5zM244 426q0 -163 65.5 -241.5t184.5 -78.5q88 0 159.5 35t118.5 92.5t79 134.5t46 157.5t14 164.5q0 75 -23 132t-62.5 90.5t-86.5 50t-100 16.5q-81 0 -149 -36t-112.5 -93.5 t-75.5 -131.5t-44.5 -148t-13.5 -144z" />
<glyph unicode="&#xf1;" horiz-adv-x="1218" d="M57 0l191 1085h176l-33 -186l90 125q75 52 143 71t156 19q163 0 247.5 -74t84.5 -204q0 -85 -27 -226l-110 -610h-176l108 598q23 132 23 188q0 89 -50.5 140.5t-160.5 48.5q-68 -2 -127 -28.5t-113 -82.5t-96 -154t-66 -233l-84 -477h-176zM528 1229q14 81 47 113t87 32 q46 0 120 -26q68 -23 86 -23q33 0 41 41h78q-14 -82 -46.5 -113.5t-86.5 -31.5q-47 0 -121 26q-68 23 -86 23q-33 0 -41 -41h-78z" />
<glyph unicode="&#xf2;" horiz-adv-x="1204" d="M57 451q0 91 22 181.5t71.5 178t120 154.5t177 108t234.5 41q122 0 214 -39.5t145.5 -108t79.5 -151.5t26 -180q0 -91 -22 -182t-71.5 -178.5t-120 -154.5t-177 -108t-234.5 -41q-98 0 -177 26.5t-132 71t-88.5 106.5t-51.5 130.5t-16 145.5zM250 455q0 -153 74.5 -251 t220.5 -98q97 0 177 47t129.5 123t76 168t26.5 187q0 152 -74.5 250t-220.5 98q-78 0 -145.5 -30.5t-115 -82.5t-81.5 -119.5t-50.5 -142t-16.5 -149.5zM535 1413h163l84 -225h-114z" />
<glyph unicode="&#xf3;" horiz-adv-x="1204" d="M57 451q0 91 22 181.5t71.5 178t120 154.5t177 108t234.5 41q122 0 214 -39.5t145.5 -108t79.5 -151.5t26 -180q0 -91 -22 -182t-71.5 -178.5t-120 -154.5t-177 -108t-234.5 -41q-98 0 -177 26.5t-132 71t-88.5 106.5t-51.5 130.5t-16 145.5zM250 455q0 -153 74.5 -251 t220.5 -98q97 0 177 47t129.5 123t76 168t26.5 187q0 152 -74.5 250t-220.5 98q-78 0 -145.5 -30.5t-115 -82.5t-81.5 -119.5t-50.5 -142t-16.5 -149.5zM647 1188l166 225h164l-215 -225h-115z" />
<glyph unicode="&#xf4;" horiz-adv-x="1204" d="M57 451q0 91 22 181.5t71.5 178t120 154.5t177 108t234.5 41q122 0 214 -39.5t145.5 -108t79.5 -151.5t26 -180q0 -91 -22 -182t-71.5 -178.5t-120 -154.5t-177 -108t-234.5 -41q-98 0 -177 26.5t-132 71t-88.5 106.5t-51.5 130.5t-16 145.5zM250 455q0 -153 74.5 -251 t220.5 -98q97 0 177 47t129.5 123t76 168t26.5 187q0 152 -74.5 250t-220.5 98q-78 0 -145.5 -30.5t-115 -82.5t-81.5 -119.5t-50.5 -142t-16.5 -149.5zM520 1188l178 225h121l96 -225h-131l-45 129l-90 -129h-129z" />
<glyph unicode="&#xf5;" horiz-adv-x="1204" d="M57 451q0 91 22 181.5t71.5 178t120 154.5t177 108t234.5 41q122 0 214 -39.5t145.5 -108t79.5 -151.5t26 -180q0 -91 -22 -182t-71.5 -178.5t-120 -154.5t-177 -108t-234.5 -41q-98 0 -177 26.5t-132 71t-88.5 106.5t-51.5 130.5t-16 145.5zM250 455q0 -153 74.5 -251 t220.5 -98q97 0 177 47t129.5 123t76 168t26.5 187q0 152 -74.5 250t-220.5 98q-78 0 -145.5 -30.5t-115 -82.5t-81.5 -119.5t-50.5 -142t-16.5 -149.5zM506 1229q14 82 46.5 113.5t86.5 31.5q47 0 121 -26q68 -23 86 -23q33 0 41 41h78q-14 -81 -47 -113t-87 -32 q-46 0 -120 26q-68 23 -86 23q-33 0 -41 -41h-78z" />
<glyph unicode="&#xf6;" horiz-adv-x="1204" d="M57 451q0 91 22 181.5t71.5 178t120 154.5t177 108t234.5 41q122 0 214 -39.5t145.5 -108t79.5 -151.5t26 -180q0 -91 -22 -182t-71.5 -178.5t-120 -154.5t-177 -108t-234.5 -41q-98 0 -177 26.5t-132 71t-88.5 106.5t-51.5 130.5t-16 145.5zM250 455q0 -153 74.5 -251 t220.5 -98q97 0 177 47t129.5 123t76 168t26.5 187q0 152 -74.5 250t-220.5 98q-78 0 -145.5 -30.5t-115 -82.5t-81.5 -119.5t-50.5 -142t-16.5 -149.5zM487 1274q0 42 35.5 75t77.5 33q35 0 57.5 -22.5t22.5 -56.5q0 -42 -35.5 -75.5t-77.5 -33.5q-35 0 -57.5 23t-22.5 57z M786 1274q0 42 35.5 75t77.5 33q35 0 57.5 -22.5t22.5 -56.5q0 -42 -35.5 -75.5t-77.5 -33.5q-35 0 -57.5 23t-22.5 57z" />
<glyph unicode="&#xf7;" d="M133 596l21 115h860l-21 -115h-860zM403 299q0 57 41 97t97 40q44 0 70 -26t26 -68q0 -56 -41 -95.5t-96 -39.5q-43 0 -70 26t-27 66zM518 956q0 56 41 96t96 40q42 0 69.5 -26.5t27.5 -66.5q0 -57 -41 -97t-97 -40q-44 0 -70 26t-26 68z" />
<glyph unicode="&#xf8;" horiz-adv-x="1290" d="M-33 45l170 143q-59 112 -59 263q0 91 22 181.5t71 178t120 154.5t177 108t234 41q235 0 355 -143l180 153l70 -84l-191 -161q51 -108 51 -244q0 -91 -22 -181.5t-71 -178.5t-120 -155t-177 -108t-234 -41q-223 0 -342 129l-164 -139zM270 455q0 -70 19 -138l631 537 q-77 125 -240 125q-97 0 -177 -46.5t-129.5 -122.5t-76.5 -168t-27 -187zM336 215q81 -109 229 -109q97 0 177 47t129.5 123t76.5 168t27 187q0 61 -12 117z" />
<glyph unicode="&#xf9;" horiz-adv-x="1210" d="M98 250q0 84 27 225l111 610h176l-109 -598q-22 -126 -22 -188q0 -89 50.5 -140t160.5 -48q68 2 127 28t113 82t95.5 154t65.5 233l84 477h176l-190 -1085h-177l33 186l-90 -125q-75 -52 -143 -71t-156 -19q-162 0 -247 74.5t-85 204.5zM535 1413h163l84 -225h-114z" />
<glyph unicode="&#xfa;" horiz-adv-x="1210" d="M98 250q0 84 27 225l111 610h176l-109 -598q-22 -126 -22 -188q0 -89 50.5 -140t160.5 -48q68 2 127 28t113 82t95.5 154t65.5 233l84 477h176l-190 -1085h-177l33 186l-90 -125q-75 -52 -143 -71t-156 -19q-162 0 -247 74.5t-85 204.5zM647 1188l166 225h164l-215 -225 h-115z" />
<glyph unicode="&#xfb;" horiz-adv-x="1210" d="M98 250q0 84 27 225l111 610h176l-109 -598q-22 -126 -22 -188q0 -89 50.5 -140t160.5 -48q68 2 127 28t113 82t95.5 154t65.5 233l84 477h176l-190 -1085h-177l33 186l-90 -125q-75 -52 -143 -71t-156 -19q-162 0 -247 74.5t-85 204.5zM520 1188l178 225h121l96 -225 h-131l-45 129l-90 -129h-129z" />
<glyph unicode="&#xfc;" horiz-adv-x="1210" d="M98 250q0 84 27 225l111 610h176l-109 -598q-22 -126 -22 -188q0 -89 50.5 -140t160.5 -48q68 2 127 28t113 82t95.5 154t65.5 233l84 477h176l-190 -1085h-177l33 186l-90 -125q-75 -52 -143 -71t-156 -19q-162 0 -247 74.5t-85 204.5zM487 1274q0 42 35.5 75t77.5 33 q35 0 57.5 -22.5t22.5 -56.5q0 -42 -35.5 -75.5t-77.5 -33.5q-35 0 -57.5 23t-22.5 57zM786 1274q0 42 35.5 75t77.5 33q35 0 57.5 -22.5t22.5 -56.5q0 -42 -35.5 -75.5t-77.5 -33.5q-35 0 -57.5 23t-22.5 57z" />
<glyph unicode="&#xfd;" horiz-adv-x="1011" d="M-61 -424l24 145q35 -6 64 -6q84 0 142.5 42t115.5 149l18 35l-231 1144h200l156 -956l490 956h202l-604 -1085q-141 -254 -240 -342t-251 -88q-45 0 -86 6zM545 1188l166 225h163l-215 -225h-114z" />
<glyph unicode="&#xfe;" horiz-adv-x="1257" d="M-14 -401l340 1906h176l-107 -592l103 115q53 38 135.5 62t165.5 24q195 0 300 -123.5t105 -318.5q0 -103 -24.5 -202t-76.5 -190t-126 -159.5t-181.5 -109t-234.5 -40.5q-69 0 -141 25.5t-107 64.5l-49 107l-102 -569h-176zM314.5 376.5q1.5 -56.5 21.5 -106t51.5 -86 t83 -57.5t115.5 -21q80 0 149.5 31.5t119.5 85.5t86 125.5t53.5 152t17.5 163.5q0 144 -66.5 229.5t-195.5 85.5q-149 0 -264 -104t-154 -322l-10 -59q-9 -61 -7.5 -117.5z" />
<glyph unicode="&#xff;" horiz-adv-x="1011" d="M-61 -424l24 145q35 -6 64 -6q84 0 142.5 42t115.5 149l18 35l-231 1144h200l156 -956l490 956h202l-604 -1085q-141 -254 -240 -342t-251 -88q-45 0 -86 6zM385 1274q0 42 35.5 75t77.5 33q35 0 57.5 -22.5t22.5 -56.5q0 -42 -35.5 -75.5t-77.5 -33.5q-35 0 -57.5 23 t-22.5 57zM684 1274q0 42 35.5 75t77.5 33q35 0 57.5 -22.5t22.5 -56.5q0 -42 -35.5 -75.5t-77.5 -33.5q-35 0 -57.5 23t-22.5 57z" />
<glyph unicode="&#x152;" horiz-adv-x="2252" d="M115 561q0 81 14.5 165.5t45.5 171t76.5 166t111 148.5t144.5 120t182 80.5t218 29.5q156 0 248.5 -40.5t157.5 -135.5l30 -148l52 295h919l-26 -143h-742l-88 -492h682l-24 -143h-682l-88 -492h765l-26 -143h-940l51 289l-82 -150q-176 -168 -465 -168 q-261 0 -397.5 152t-136.5 438zM311 565q0 -215 99 -334.5t284 -119.5q219 0 373.5 163.5t202.5 432.5q12 71 13 138.5t-9 136t-37.5 125.5t-70 101.5t-110 69.5t-153.5 25q-100 0 -187 -33t-150.5 -90t-113.5 -130t-80 -156.5t-45.5 -166.5t-15.5 -162z" />
<glyph unicode="&#x153;" horiz-adv-x="1986" d="M49 412q0 59 10.5 122.5t35 132t60 132.5t88.5 121.5t118 100.5t152.5 68t186.5 25q315 0 400 -262q175 262 463 262q187 0 285 -108t98 -295q0 -113 -33 -222h-783q-4 -29 -4 -81q0 -152 65.5 -227t178.5 -75q109 0 198 65t126 179h184q-42 -126 -129 -213.5 t-190.5 -126.5t-219.5 -39q-281 0 -358 258q-173 -258 -481 -258q-225 0 -338 122.5t-113 318.5zM244 424q0 -146 71.5 -232t206.5 -86q89 0 164 37.5t123.5 96.5t82.5 134t49 147.5t15 140.5q0 146 -71.5 231.5t-206.5 85.5q-89 0 -164 -37t-123.5 -96t-82.5 -134 t-49 -147.5t-15 -140.5zM1157 625h606q6 44 6 80q0 274 -233 274q-133 0 -233.5 -91.5t-145.5 -262.5z" />
<glyph unicode="&#x178;" horiz-adv-x="1189" d="M193 1413h186l274 -696l508 696h207l-653 -864l-97 -549h-176l99 557zM573 1589q0 42 35.5 75.5t77.5 33.5q35 0 57.5 -23t22.5 -57q0 -42 -35.5 -75.5t-77.5 -33.5q-35 0 -57.5 23t-22.5 57zM860 1589q0 42 35.5 75.5t77.5 33.5q35 0 57.5 -23t22.5 -57 q0 -42 -35.5 -75.5t-77.5 -33.5q-35 0 -57.5 23t-22.5 57z" />
<glyph unicode="&#x2c6;" horiz-adv-x="614" d="M90 1188l178 225h121l96 -225h-131l-45 129l-90 -129h-129z" />
<glyph unicode="&#x2dc;" horiz-adv-x="614" d="M78 1229q14 82 46.5 113.5t86.5 31.5q47 0 121 -26q68 -23 86 -23q33 0 41 41h78q-14 -81 -47 -113t-87 -32q-46 0 -120 26q-68 23 -86 23q-33 0 -41 -41h-78z" />
<glyph unicode="&#x2000;" horiz-adv-x="895" />
<glyph unicode="&#x2001;" horiz-adv-x="1790" />
<glyph unicode="&#x2002;" horiz-adv-x="895" />
<glyph unicode="&#x2003;" horiz-adv-x="1790" />
<glyph unicode="&#x2004;" horiz-adv-x="596" />
<glyph unicode="&#x2005;" horiz-adv-x="447" />
<glyph unicode="&#x2006;" horiz-adv-x="298" />
<glyph unicode="&#x2007;" horiz-adv-x="298" />
<glyph unicode="&#x2008;" horiz-adv-x="223" />
<glyph unicode="&#x2009;" horiz-adv-x="358" />
<glyph unicode="&#x200a;" horiz-adv-x="99" />
<glyph unicode="&#x2010;" horiz-adv-x="561" d="M55 522l21 115h430l-21 -115h-430z" />
<glyph unicode="&#x2011;" horiz-adv-x="561" d="M55 522l21 115h430l-21 -115h-430z" />
<glyph unicode="&#x2012;" horiz-adv-x="561" d="M55 522l21 115h430l-21 -115h-430z" />
<glyph unicode="&#x2013;" horiz-adv-x="1024" d="M133 541l21 114h737l-21 -114h-737z" />
<glyph unicode="&#x2014;" horiz-adv-x="2048" d="M133 541l21 114h1761l-21 -114h-1761z" />
<glyph unicode="&#x2018;" horiz-adv-x="454" d="M182 963l4 24l260 426h166l-239 -450h-191z" />
<glyph unicode="&#x2019;" horiz-adv-x="454" d="M76 963l239 450h191l-4 -24l-260 -426h-166z" />
<glyph unicode="&#x201a;" horiz-adv-x="477" d="M-178 -246l239 451h193l-4 -25l-262 -426h-166z" />
<glyph unicode="&#x201c;" horiz-adv-x="802" d="M182 963l4 24l260 426h166l-239 -450h-191zM530 963l5 24l260 426h166l-240 -450h-191z" />
<glyph unicode="&#x201d;" horiz-adv-x="802" d="M76 963l239 450h191l-4 -24l-260 -426h-166zM424 963l240 450h190l-4 -24l-260 -426h-166z" />
<glyph unicode="&#x201e;" horiz-adv-x="825" d="M-178 -246l239 451h193l-4 -25l-262 -426h-166zM170 -246l240 451h192l-4 -25l-262 -426h-166z" />
<glyph unicode="&#x2022;" horiz-adv-x="745" d="M156 586q0 103 76.5 177.5t177.5 74.5q81 0 130.5 -49t49.5 -125q0 -103 -76.5 -177.5t-177.5 -74.5q-81 0 -130.5 49t-49.5 125z" />
<glyph unicode="&#x2026;" horiz-adv-x="1296" d="M0 80q0 66 45 109.5t109 43.5q50 0 79 -30.5t29 -77.5q0 -67 -44.5 -110.5t-108.5 -43.5q-50 0 -79.5 31t-29.5 78zM410 80q0 66 44.5 109.5t108.5 43.5q50 0 79.5 -30.5t29.5 -77.5q0 -66 -45 -110t-109 -44q-50 0 -79 31t-29 78zM819 80q0 66 45 109.5t109 43.5 q50 0 79 -30.5t29 -77.5q0 -67 -44.5 -110.5t-108.5 -43.5q-50 0 -79.5 31t-29.5 78z" />
<glyph unicode="&#x202f;" horiz-adv-x="358" />
<glyph unicode="&#x2039;" horiz-adv-x="772" d="M233 508l340 340h170l-354 -354l211 -326h-145z" />
<glyph unicode="&#x203a;" horiz-adv-x="772" d="M16 168l355 354l-211 326h145l221 -340l-340 -340h-170z" />
<glyph unicode="&#x205f;" horiz-adv-x="447" />
<glyph unicode="&#x20ac;" d="M-31 532l41 115h121q3 55 12 111h-98l41 114h82q23 91 59 170t94 154t131 128.5t174.5 85.5t221.5 32q223 0 321 -129l-100 -111q-81 101 -238 101q-100 0 -182 -36t-138 -99.5t-92.5 -136t-60.5 -159.5h619l-43 -114h-598q-9 -58 -12 -111h575l-39 -115h-538 q4 -119 28.5 -202t69.5 -130.5t102.5 -68t136.5 -20.5q172 0 316 82l-27 -146q-148 -76 -323 -76q-87 0 -156.5 15t-133 53.5t-107 100.5t-70 161.5t-29.5 230.5h-160z" />
<glyph unicode="&#x2122;" horiz-adv-x="1103" d="M63 1268l15 84h405l-14 -84h-152l-59 -334h-102l59 334h-152zM459 934l73 416h154l31 -318l145 318h150l-74 -416h-102l55 291l-137 -283h-107l-37 281l-49 -289h-102z" />
<glyph unicode="&#x25fc;" horiz-adv-x="1085" d="M0 0v1085h1085v-1085h-1085z" />
</font>
</defs>
</svg>
