<?xml version="1.0" standalone="no"?>
<!DOCTYPE svg PUBLIC "-//W3C//DTD SVG 1.1//EN" "http://www.w3.org/Graphics/SVG/1.1/DTD/svg11.dtd" >
<svg xmlns="http://www.w3.org/2000/svg">
<metadata></metadata>
<defs>
<font id="aileronlight_italic" horiz-adv-x="1148" >
<font-face units-per-em="2048" ascent="1577" descent="-471" />
<missing-glyph horiz-adv-x="376" />
<glyph unicode="&#xfb01;" horiz-adv-x="966" d="M68 0l170 973h-97l19 102h96l8 51q10 61 29 123q39 141 155.5 218t303.5 77q52 0 114 -10l-20 -107q-361 45 -428 -184q-14 -49 -25 -106l-10 -62h528l-188 -1075h-127l170 973h-401l-170 -973h-127z" />
<glyph unicode="&#xfb02;" horiz-adv-x="991" d="M66 0l172 973h-97l19 102h96l8 51q8 48 27 123q39 140 150 217.5t288 77.5q161 0 250 -39l-215 -1218q-19 -109 -19 -127q0 -39 27 -55.5t86 -12.5l-16 -94q-33 -6 -103 -6q-63 0 -96 24.5t-33 87.5q0 42 27 179l201 1142q-59 19 -131 19q-121 0 -192 -55.5t-97 -145.5 q-21 -72 -25 -106l-10 -62h221l-18 -102h-221l-172 -973h-127z" />
<glyph horiz-adv-x="2048" />
<glyph horiz-adv-x="2048" />
<glyph unicode="&#xd;" horiz-adv-x="2048" />
<glyph unicode=" "  horiz-adv-x="376" />
<glyph unicode="&#x09;" horiz-adv-x="376" />
<glyph unicode="&#xa0;" horiz-adv-x="376" />
<glyph unicode="!" horiz-adv-x="452" d="M43 49q0 49 35 83t82 34q36 0 59 -22t23 -56q0 -49 -35 -83t-82 -34q-36 0 -59 22t-23 56zM127 315l192 1098h148l-225 -1098h-115z" />
<glyph unicode="&#x22;" horiz-adv-x="477" d="M92 997l76 508h131l-104 -508h-103zM334 997l76 508h133l-107 -508h-102z" />
<glyph unicode="#" d="M121 469l16 88h219l117 299h-223l16 88h242l182 469h90l-182 -469h201l184 469h90l-182 -469h201l-17 -88h-219l-117 -299h222l-15 -88h-241l-183 -469h-90l182 469h-202l-183 -469h-90l183 469h-201zM446 557h203l117 299h-203z" />
<glyph unicode="$" d="M45 377h133q18 -269 250 -299l102 581q-74 23 -130.5 52.5t-102.5 72.5t-70 103.5t-24 136.5q0 75 27.5 145.5t82 131.5t147 99t210.5 42l26 155h92l-28 -159q109 -13 183.5 -69.5t108 -137.5t35.5 -184h-135q-3 122 -57.5 195.5t-153.5 90.5l-100 -561 q177 -58 264.5 -153.5t87.5 -241.5q0 -172 -131.5 -286t-361.5 -120l-27 -155h-92l29 159q-185 18 -272.5 128.5t-92.5 273.5zM340 1038q0 -172 215 -245l96 544q-151 -7 -231 -94t-80 -205zM518 76q166 6 252 85t86 210q0 103 -58.5 165.5t-179.5 102.5z" />
<glyph unicode="%" horiz-adv-x="1484" d="M119 0l1161 1413h139l-1161 -1413h-139zM197 1057q0 69 21.5 136t62 123.5t107.5 91t149 34.5q114 0 181.5 -73t67.5 -193q0 -70 -21 -136.5t-61.5 -123t-107.5 -91t-150 -34.5q-114 0 -181.5 73t-67.5 193zM324 1051q0 -77 34.5 -122.5t100.5 -45.5q93 0 146.5 88 t53.5 213q0 76 -34 121t-101 45q-62 0 -108.5 -42.5t-69 -109.5t-22.5 -147zM756 238q0 70 21 136.5t61.5 123t107.5 91t150 34.5q114 0 182 -73.5t68 -193.5q0 -69 -21.5 -136t-62 -123.5t-107.5 -91t-149 -34.5q-116 0 -183 73.5t-67 193.5zM881 231q0 -77 34.5 -122.5 t100.5 -45.5q94 0 148.5 88.5t54.5 213.5q0 76 -35 120.5t-101 44.5q-93 0 -147.5 -88t-54.5 -211z" />
<glyph unicode="&#x26;" horiz-adv-x="1304" d="M33 309q0 144 109 253t309 134q-108 30 -175 113t-67 197q0 57 20.5 116t66 117t110.5 102.5t162 72.5t212 28q119 0 244 -23l-20 -102q-110 22 -248 22q-102 0 -183 -29.5t-129 -77.5t-73 -104t-25 -114q0 -84 42.5 -145t103.5 -89.5t131 -31.5q95 -3 286 -3l49 273h127 l-49 -273h193l-19 -106h-192l-113 -637q-184 -31 -381 -31q-229 0 -360 85t-131 253zM172 317q0 -243 375 -243q114 0 248 16l96 549q-219 0 -287 -4q-216 -12 -324 -94.5t-108 -223.5z" />
<glyph unicode="'" horiz-adv-x="235" d="M92 997l76 508h131l-104 -508h-103z" />
<glyph unicode="(" horiz-adv-x="589" d="M174 410q0 187 45 390.5t144 417t239 379.5h90q-211 -271 -314.5 -581.5t-103.5 -603.5q0 -316 107 -576h-90q-117 240 -117 574z" />
<glyph unicode=")" horiz-adv-x="589" d="M-63 -164q211 272 314 583t103 603q0 318 -106 575h90q117 -240 117 -573q0 -187 -45 -390.5t-144 -417.5t-239 -380h-90z" />
<glyph unicode="*" horiz-adv-x="1085" d="M166 623l47 94l297 -121l53 377h99l-80 -377l340 121l12 -94l-340 -93l178 -290l-90 -58l-154 310l-266 -310l-67 58l278 290z" />
<glyph unicode="+" d="M139 604l15 86h376l78 434h90l-75 -434h376l-16 -86h-377l-76 -428h-90l74 428h-375z" />
<glyph unicode="," horiz-adv-x="395" d="M-184 -244l204 391h140l-2 -20l-224 -371h-118z" />
<glyph unicode="-" horiz-adv-x="561" d="M57 535l17 88h430l-17 -88h-430z" />
<glyph unicode="." horiz-adv-x="395" d="M-18 53q0 49 33.5 81t80.5 32q36 0 58 -23t22 -57q0 -50 -33 -82.5t-80 -32.5q-36 0 -58.5 23t-22.5 59z" />
<glyph unicode="/" horiz-adv-x="589" d="M-117 -61l785 1536h96l-784 -1536h-97z" />
<glyph unicode="0" d="M63 485q0 82 9.5 168.5t31.5 181.5t54.5 181t82.5 164.5t112 136t146.5 91.5t182.5 34q211 0 317.5 -139t106.5 -373q0 -82 -9.5 -169.5t-31.5 -182t-54.5 -181t-83 -165t-112.5 -136t-146.5 -91.5t-181.5 -34q-142 0 -239 67t-141 180.5t-44 266.5zM203 487 q0 -192 72.5 -302.5t216.5 -110.5q76 0 142 34t113.5 89.5t85.5 130.5t62 154t40.5 162.5t23 153.5t6.5 130q0 192 -71.5 301.5t-217.5 109.5q-88 0 -162.5 -44.5t-124.5 -119t-87.5 -164t-58 -188t-30.5 -182t-10 -154.5z" />
<glyph unicode="1" d="M303 928l29 145l528 340h78l-254 -1413h-127l221 1233z" />
<glyph unicode="2" d="M10 0l15 88l612 506q141 117 213.5 194.5t105.5 151t33 162.5q0 111 -66 174t-190 63q-139 0 -240.5 -86t-142.5 -243h-135q48 197 190.5 314.5t346.5 117.5q177 0 275.5 -91.5t98.5 -244.5q0 -67 -17 -126t-46.5 -112t-84.5 -113t-116.5 -116t-156.5 -133l-486 -400h746 l-19 -106h-936z" />
<glyph unicode="3" d="M45 401h135q9 -153 94 -240t238 -87q166 0 264 92.5t98 226.5q0 122 -89.5 199.5t-256.5 77.5h-34l18 104h35q195 0 306.5 91.5t111.5 232.5q0 103 -71 172t-194 69q-124 0 -220 -78t-140 -229h-135q52 197 189.5 303.5t330.5 106.5q174 0 275.5 -95.5t101.5 -238.5 q0 -139 -93.5 -247t-254.5 -138q128 -36 193 -122t65 -204q0 -185 -141 -305.5t-386 -120.5q-195 0 -316 117.5t-124 312.5z" />
<glyph unicode="4" d="M20 336l15 80l876 997h129l-172 -973h189l-21 -104h-186l-59 -336h-127l59 336h-703zM195 440h548l146 801z" />
<glyph unicode="5" d="M59 360h136q6 -137 84.5 -211.5t218.5 -74.5q169 0 284 118t115 304q0 147 -83 231t-214 84q-107 0 -192.5 -49.5t-159.5 -165.5h-121l233 817h799l-18 -106h-695l-163 -564l100 105q111 65 252 65q186 0 292.5 -111t106.5 -286q0 -160 -72 -285t-196 -192.5t-279 -67.5 q-190 0 -303 95.5t-125 293.5z" />
<glyph unicode="6" d="M88 432q0 117 20 237t58 232.5t97 210.5t132 171.5t167.5 116t199.5 42.5q350 0 387 -361h-135q-16 130 -78 194t-191 64q-166 0 -302 -165.5t-197 -471.5l94 123q140 123 328 123q95 0 171.5 -33.5t125.5 -90t74.5 -130.5t23.5 -157q-1 -147 -67.5 -275t-195 -209.5 t-292.5 -81.5q-189 0 -304.5 118t-115.5 343zM219 422q0 -166 78 -257t229 -91q112 0 204 63t143 164t53 217q2 143 -74.5 235.5t-218.5 92.5q-93 0 -173 -38.5t-131.5 -100t-80.5 -136t-29 -149.5z" />
<glyph unicode="7" d="M111 0l927 1307h-819l21 106h979l-17 -86l-944 -1327h-147z" />
<glyph unicode="8" d="M47 311q0 137 94.5 253t268.5 163q-89 35 -141 109.5t-52 177.5q0 115 69 213.5t191.5 156.5t270.5 58q187 0 289 -95.5t102 -244.5q0 -75 -34 -148t-109 -136.5t-179 -92.5q101 -32 161 -116.5t60 -196.5q0 -88 -36.5 -167.5t-105 -141t-175 -98t-236.5 -36.5 q-91 0 -168.5 20.5t-138.5 61.5t-96 107.5t-35 152.5zM184 332q0 -125 90 -192.5t228 -67.5q186 0 291.5 97.5t105.5 231.5q0 116 -76.5 192.5t-224.5 76.5q-89 0 -162 -22.5t-118.5 -57.5t-76.5 -81t-44 -90t-13 -87zM356 1014q0 -112 75 -177t194 -65q93 0 167.5 28.5 t118.5 75t67 101t23 110.5q0 109 -74 180.5t-198 71.5q-163 0 -268 -97.5t-105 -227.5z" />
<glyph unicode="9" d="M59 332h136q14 -130 75.5 -194t190.5 -64q168 0 304 165.5t196 471.5l-93 -123q-140 -123 -327 -123q-125 0 -217.5 58t-136.5 150t-42 204q1 109 40.5 211t109.5 180.5t175.5 126t229.5 47.5q189 0 304.5 -118t115.5 -343q0 -117 -20 -237t-58 -232.5t-97 -210.5 t-132 -171.5t-167.5 -116t-199.5 -42.5q-350 0 -387 361zM283 895q-2 -143 74 -235.5t218 -92.5q93 0 173 38.5t131.5 100t80.5 136t29 149.5q0 166 -78 257t-229 91q-112 0 -204 -63t-142.5 -164t-52.5 -217z" />
<glyph unicode=":" horiz-adv-x="395" d="M-18 53q0 49 33.5 81t80.5 32q36 0 58 -23t22 -57q0 -50 -33 -82.5t-80 -32.5q-36 0 -58.5 23t-22.5 59zM150 997q0 50 32.5 82.5t79.5 32.5q37 0 59.5 -23.5t22.5 -58.5q0 -49 -33.5 -80.5t-79.5 -31.5q-37 0 -59 22t-22 57z" />
<glyph unicode=";" horiz-adv-x="395" d="M-184 -244l204 391h138l-2 -20l-222 -371h-118zM150 997q0 50 32.5 82.5t79.5 32.5q37 0 59.5 -23.5t22.5 -58.5q0 -49 -33.5 -80.5t-79.5 -31.5q-37 0 -59 22t-22 57z" />
<glyph unicode="&#x3c;" d="M176 492l19 102l890 407l-18 -112l-784 -352l661 -351l-18 -102z" />
<glyph unicode="=" d="M96 406l15 88h860l-15 -88h-860zM166 801l16 88h860l-16 -88h-860z" />
<glyph unicode="&#x3e;" d="M70 84l18 113l784 352l-659 350l18 102l750 -407l-18 -102z" />
<glyph unicode="?" horiz-adv-x="1144" d="M233 1012q34 197 172.5 313.5t337.5 116.5q170 0 266.5 -86t96.5 -213q0 -120 -62.5 -223t-222.5 -250q-119 -110 -165.5 -179.5t-69.5 -175.5h-125q17 111 66.5 188t183.5 210q152 150 205 238t53 182q0 93 -66 149.5t-176 56.5q-141 0 -235.5 -84.5t-126.5 -242.5h-132 zM387 49q0 49 35 83t82 34q36 0 59 -22t23 -56q0 -49 -35 -83t-82 -34q-36 0 -59 22t-23 56z" />
<glyph unicode="@" horiz-adv-x="1738" d="M111 498q0 157 48 296.5t130.5 241.5t190 176t229.5 111t247 37q294 0 478 -188t184 -488q0 -131 -35.5 -235.5t-94 -167t-129 -95t-145.5 -32.5q-85 0 -141.5 40t-64.5 125l-39 -79q-97 -103 -221 -103q-39 0 -76 9.5t-74 33t-64 59t-44 92t-17 128.5q0 138 55 259 t157 196t226 75q115 0 170 -65l27 -105l35 133h123l-119 -497q-14 -64 -14 -109q0 -102 108 -102q114 0 196.5 116t82.5 318q0 186 -76.5 322t-204.5 203t-291 67q-105 0 -210.5 -32.5t-200.5 -98t-168 -156t-116.5 -215.5t-43.5 -266q0 -151 48 -271.5t131.5 -197 t191 -116.5t229.5 -40q294 0 530 170l41 -78q-272 -182 -575 -182q-108 0 -208.5 27.5t-189 85.5t-154.5 140.5t-104 200t-38 257.5zM610 471q0 -119 45 -176t121 -57q89 0 160.5 80.5t103.5 218.5l19 79q31 131 -11.5 202t-132.5 71q-129 0 -217 -125t-88 -293z" />
<glyph unicode="A" horiz-adv-x="1302" d="M-31 0l772 1413h183l260 -1413h-137l-93 518h-561l-276 -518h-148zM451 625h485l-119 686z" />
<glyph unicode="B" horiz-adv-x="1251" d="M88 0l250 1413h418q113 0 174 -6q142 -14 224.5 -96.5t82.5 -212.5t-78.5 -230t-247.5 -139q113 -36 168.5 -118t55.5 -195q0 -162 -118.5 -278.5t-318.5 -131.5q-76 -6 -137 -6h-473zM233 106h351q56 0 96 3q154 13 235.5 96.5t81.5 208.5q0 109 -58.5 173.5 t-174.5 74.5q-71 6 -111 6h-319zM352 774h310q71 0 114 2q149 13 235.5 98.5t86.5 202.5q0 106 -60 163t-164 65q-41 2 -120 2h-308z" />
<glyph unicode="C" horiz-adv-x="1406" d="M119 543q0 79 14 163t45 172.5t76 169.5t110.5 153.5t144.5 125.5t183 84t221 31q234 0 357.5 -116.5t136.5 -317.5h-135q-11 156 -101.5 243.5t-271.5 87.5q-125 0 -232 -48.5t-181.5 -129t-127 -185t-77.5 -217t-25 -224.5q0 -213 115.5 -337t294.5 -124q168 0 292 83 t193 232h135q-188 -418 -639 -418q-249 0 -388.5 152.5t-139.5 419.5z" />
<glyph unicode="D" horiz-adv-x="1425" d="M88 0l250 1413h373q105 0 166 -6q103 -9 191 -49t157.5 -111t109 -182t39.5 -252q0 -116 -30.5 -227t-92 -210.5t-147.5 -177.5t-204.5 -129t-256.5 -63q-74 -6 -182 -6h-373zM233 106h256q86 0 166 9q114 14 210 59t163.5 111.5t114.5 151t69.5 178.5t22.5 194 q0 224 -104.5 347.5t-274.5 143.5q-53 7 -154 7h-256z" />
<glyph unicode="E" horiz-adv-x="1171" d="M88 0l250 1413h897l-21 -104h-768l-96 -549h715l-18 -107h-717l-97 -549h791l-18 -104h-918z" />
<glyph unicode="F" horiz-adv-x="1130" d="M88 0l250 1413h897l-21 -104h-768l-96 -549h715l-18 -107h-717l-115 -653h-127z" />
<glyph unicode="G" horiz-adv-x="1466" d="M123 563q0 126 31.5 250t98.5 237.5t160.5 200.5t227 139t289.5 52q233 0 362 -119.5t138 -314.5h-134q-13 153 -110 242t-279 89q-123 0 -229.5 -44.5t-181.5 -119.5t-128.5 -174t-79.5 -208.5t-26 -221.5q0 -242 119 -369.5t309 -127.5q87 0 172 31.5t158 90t126.5 152 t74.5 209.5h-392l19 105h516l-117 -662h-110l49 287l-78 -131q-168 -185 -444 -185q-246 0 -393.5 155.5t-147.5 436.5z" />
<glyph unicode="H" horiz-adv-x="1406" d="M88 0l250 1413h127l-119 -665h828l118 665h127l-250 -1413h-127l113 639h-827l-113 -639h-127z" />
<glyph unicode="I" horiz-adv-x="452" d="M88 0l250 1413h127l-250 -1413h-127z" />
<glyph unicode="J" horiz-adv-x="1028" d="M31 397h133q2 -156 68 -239.5t196 -83.5q236 0 307 264q16 70 37 184l156 891h127l-158 -895q-14 -78 -41 -201q-83 -346 -448 -346q-183 0 -279 117t-98 309z" />
<glyph unicode="K" horiz-adv-x="1214" d="M88 0l250 1413h127l-127 -721l858 721h160l-842 -706l569 -707h-157l-508 637l-107 -90l-96 -547h-127z" />
<glyph unicode="L" horiz-adv-x="1138" d="M88 0l250 1413h127l-232 -1309h791l-18 -104h-918z" />
<glyph unicode="M" horiz-adv-x="1689" d="M88 0l250 1413h209l248 -1286l698 1286h209l-250 -1413h-127l231 1288l-706 -1288h-160l-248 1300l-227 -1300h-127z" />
<glyph unicode="N" horiz-adv-x="1378" d="M88 0l250 1413h194l502 -1294l230 1294h127l-250 -1413h-195l-506 1296l-225 -1296h-127z" />
<glyph unicode="O" horiz-adv-x="1527" d="M127 586q0 126 30 248t94.5 232.5t155.5 193.5t221.5 132.5t284.5 49.5q173 0 302 -80.5t195.5 -219t66.5 -315.5q0 -126 -30.5 -248t-94.5 -232.5t-155 -193.5t-222 -132.5t-285 -49.5q-172 0 -301 80.5t-195.5 219t-66.5 315.5zM266 586q0 -232 124.5 -372t326.5 -140 q119 0 222 45t175.5 120t124 172.5t76 203.5t24.5 212q0 233 -124.5 372.5t-325.5 139.5q-120 0 -223.5 -45t-175.5 -120t-123.5 -172.5t-76 -203.5t-24.5 -212z" />
<glyph unicode="P" horiz-adv-x="1163" d="M88 0l250 1413h395q115 0 178 -8q133 -13 217 -102.5t84 -239.5q0 -85 -27 -161.5t-79 -139t-135.5 -104t-190.5 -52.5q-66 -8 -184 -8h-274l-107 -598h-127zM340 707h274q111 0 172 10q149 25 220 117t71 221q0 104 -52 164.5t-136 74.5q-65 11 -168 11h-275z" />
<glyph unicode="Q" horiz-adv-x="1521" d="M125 578q0 123 29.5 244t93 233.5t152 198t217 137t278.5 51.5q139 0 248.5 -46t179.5 -128t106.5 -192t36.5 -240q0 -140 -38 -274t-119.5 -255t-196.5 -198q121 -19 229 -127l-86 -88q-91 68 -146 91t-122 23q-53 0 -151 -20q-69 -17 -138 -17q-140 0 -250 46 t-180 128.5t-106.5 192.5t-36.5 240zM264 578q0 -228 123 -366t324 -138q119 0 222 46t174.5 122t122.5 175.5t75 206t24 212.5q0 227 -123 365t-323 138q-100 0 -189 -32t-155.5 -88t-119.5 -130t-86.5 -159.5t-51 -174.5t-17.5 -177z" />
<glyph unicode="R" horiz-adv-x="1243" d="M88 0l250 1413h393q115 0 176 -6q334 -37 334 -352q0 -144 -95 -252.5t-255 -143.5q66 -28 100.5 -88t36.5 -145q9 -267 55 -426h-133q-30 143 -43 383q-5 110 -48 164.5t-142 60.5q-37 2 -111 2h-282l-109 -610h-127zM342 717h291q94 0 145 4q104 8 179.5 57.5t110 120 t34.5 154.5q0 115 -61 177t-169 73q-49 4 -149 4h-277z" />
<glyph unicode="S" horiz-adv-x="1140" d="M27 389h135q11 -145 105.5 -230t254.5 -85q163 0 264 78.5t101 214.5q0 105 -77.5 171t-244.5 115q-83 24 -143.5 52.5t-112.5 71t-79 104.5t-27 141q0 184 136 302t363 118q104 0 186 -33t132.5 -90t77.5 -129t30 -156h-133q-9 148 -91 226.5t-218 78.5 q-149 0 -246.5 -82t-97.5 -215q0 -47 13.5 -84.5t36 -65t60.5 -50.5t79 -39.5t100 -34.5q198 -60 295.5 -146.5t97.5 -234.5q0 -189 -137.5 -302.5t-380.5 -113.5q-116 0 -206.5 32.5t-147 91t-88 132.5t-37.5 162z" />
<glyph unicode="T" horiz-adv-x="1230" d="M203 1309l20 104h1161l-18 -104h-516l-232 -1309h-126l231 1309h-520z" />
<glyph unicode="U" horiz-adv-x="1335" d="M168 342q0 84 18 176l158 895h127l-156 -887q-20 -117 -20 -180q0 -124 80 -198t239 -74q175 0 278.5 80.5t145.5 240.5q17 66 27 125l156 893h127l-160 -903q-11 -63 -27 -131q-100 -408 -565 -408q-209 0 -318.5 98t-109.5 273z" />
<glyph unicode="V" horiz-adv-x="1284" d="M215 1413h137l228 -1315l702 1315h145l-772 -1413h-180z" />
<glyph unicode="W" horiz-adv-x="1851" d="M207 1413h139l86 -1280l574 1260h180l117 -1260l555 1280h139l-639 -1413h-164l-119 1270l-586 -1270h-165z" />
<glyph unicode="X" horiz-adv-x="1234" d="M-43 0l633 721l-348 692h143l299 -604l526 604h150l-621 -696l389 -717h-153l-326 629l-543 -629h-149z" />
<glyph unicode="Y" horiz-adv-x="1163" d="M197 1413h133l297 -739l547 739h151l-655 -862l-97 -551h-127l99 557z" />
<glyph unicode="Z" horiz-adv-x="1169" d="M-10 0l18 98l1075 1209h-804l18 106h967l-19 -104l-1071 -1203h870l-18 -106h-1036z" />
<glyph unicode="[" horiz-adv-x="579" d="M31 -164l311 1761h328l-17 -88h-235l-279 -1585h234l-15 -88h-327z" />
<glyph unicode="\" horiz-adv-x="589" d="M154 1475h96l244 -1536h-97z" />
<glyph unicode="]" horiz-adv-x="579" d="M-53 -164l16 88h236l280 1585h-235l16 88h326l-312 -1761h-327z" />
<glyph unicode="^" d="M113 440l499 822h111l213 -822h-107l-172 736l-434 -736h-110z" />
<glyph unicode="_" horiz-adv-x="1024" d="M94 -172l17 88h819l-17 -88h-819z" />
<glyph unicode="`" horiz-adv-x="614" d="M129 1413h123l86 -225h-86z" />
<glyph unicode="a" horiz-adv-x="1028" d="M39 242q0 115 60.5 199.5t166.5 130.5q106 47 242 64q79 10 167 10q62 0 128 -5l6 41q18 98 18 147q0 181 -202 181q-267 0 -330 -248h-131q34 160 158.5 254t306.5 94q163 0 245 -71t82 -193q0 -41 -18 -160l-70 -383q-21 -126 -32 -303h-129l18 197l-72 -103 q-114 -123 -321 -123q-124 0 -208.5 70t-84.5 201zM176 254q0 -87 57.5 -134.5t153.5 -47.5q129 0 240 102t137 244l20 127q-69 7 -132 7q-96 0 -179 -16q-137 -28 -217 -100.5t-80 -181.5z" />
<glyph unicode="b" horiz-adv-x="1206" d="M55 0l267 1505h127l-111 -622l94 118q129 111 326 111q188 0 291.5 -123t103.5 -317q0 -104 -24 -203.5t-75 -190t-123 -158.5t-174 -108.5t-222 -40.5q-88 0 -160 30t-113 85l-45 115l-35 -201h-127zM260 356q2 -61 22 -113t54 -90t89 -59.5t126 -21.5q108 0 197.5 51 t147 135.5t89 190t31.5 217.5q0 156 -75.5 250t-217.5 94q-159 0 -278.5 -107t-161.5 -336l-15 -82q-9 -59 -9 -113q1 -8 1 -16z" />
<glyph unicode="c" horiz-adv-x="1077" d="M51 412q0 133 41 257.5t116 223.5t193.5 159t262.5 60q183 0 279.5 -103t96.5 -280h-133q-3 138 -70 210.5t-198 72.5q-129 0 -233 -79t-161 -215t-57 -302q0 -172 78 -258t203 -86t222.5 68t152.5 198h131q-150 -367 -526 -367q-178 0 -288 115.5t-110 325.5z" />
<glyph unicode="d" horiz-adv-x="1204" d="M53 412q0 103 24.5 202.5t75.5 190t122.5 158.5t174 108.5t222.5 40.5q89 0 160 -30.5t112 -86.5l43 -112l111 622h127l-267 -1505h-127l37 199l-94 -117q-126 -111 -325 -111q-188 0 -292 123.5t-104 317.5zM190 418q0 -156 75.5 -251t217.5 -95q76 0 143 24t127 74.5 t105 138.5t66 207l14 82q10 56 10 106q0 53 -11 99q-21 91 -93.5 149t-188.5 58q-108 0 -197.5 -51t-147 -135t-89 -189t-31.5 -217z" />
<glyph unicode="e" horiz-adv-x="1093" d="M51 406q0 94 21.5 190.5t69.5 189.5t116 165t169.5 116.5t221.5 44.5q188 0 289.5 -112t101.5 -295q0 -112 -26 -201h-819q-7 -58 -7 -94q0 -170 79 -254t204 -84q118 0 218.5 70t152.5 200h131q-47 -125 -132 -210t-184 -123t-211 -38q-180 0 -287.5 113t-107.5 322z M213 604h692q6 53 6 94q0 156 -76 234t-206 78q-87 0 -159.5 -34t-122 -93.5t-82.5 -129t-52 -149.5z" />
<glyph unicode="f" horiz-adv-x="520" d="M68 0l170 977h-97l19 100h96l20 115q14 75 29 129q33 110 105.5 166.5t169.5 56.5q65 0 127 -10l-21 -107q-44 9 -80 9q-132 0 -172 -117q-19 -62 -28 -111l-23 -131h221l-18 -100h-221l-170 -977h-127z" />
<glyph unicode="g" horiz-adv-x="1204" d="M-12 -113h131q22 -129 98.5 -183t208.5 -54q324 0 405 364q21 105 31 160l4 25l-92 -117q-126 -111 -325 -111q-188 0 -292 123.5t-104 317.5q0 102 23.5 201t74 189.5t122.5 159t177 109.5t230 41q83 0 153 -28t111 -80l43 -119l35 198h127l-143 -809q-27 -161 -48 -254 q-49 -241 -185.5 -356t-360.5 -115q-186 0 -291 78t-133 260zM190 418q0 -156 75.5 -251t217.5 -95q75 0 142.5 24t127.5 74t105 138t66 206v2l14 82q11 51 11 99q0 30 -5 59q-10 74 -41 130.5t-92.5 90t-146.5 33.5q-91 0 -169 -34t-133.5 -91.5t-94.5 -133.5t-58 -160.5 t-19 -172.5z" />
<glyph unicode="h" horiz-adv-x="1169" d="M55 0l267 1516h127l-113 -642l80 121q139 117 323 117q158 0 242 -76t84 -209q0 -75 -25 -221l-110 -606h-127l106 592q25 141 25 201q0 101 -58 159q-57 57 -174 56h-4q-150 -2 -265 -116t-157 -353l-94 -539h-127z" />
<glyph unicode="i" horiz-adv-x="425" d="M55 0l191 1083h127l-191 -1083h-127zM266 1303q0 42 29.5 71t71.5 29q32 0 52.5 -21t20.5 -51q0 -42 -30 -71t-72 -29q-32 0 -52 21t-20 51z" />
<glyph unicode="j" horiz-adv-x="376" d="M-211 -424l21 105q24 -4 45 -4q112 0 145 106q8 23 25 100l208 1200h127l-208 -1198q-11 -56 -29 -123q-52 -192 -254 -192q-53 0 -80 6zM246 1303q0 42 29 71t71 29q33 0 53.5 -21t20.5 -51q0 -42 -29.5 -71t-71.5 -29q-32 0 -52.5 21t-20.5 51z" />
<glyph unicode="k" horiz-adv-x="1028" d="M55 0l267 1505h127l-173 -970l644 548h167l-614 -514l440 -569h-155l-379 500l-127 -111l-70 -389h-127z" />
<glyph unicode="l" horiz-adv-x="452" d="M70 104q0 27 26 179l215 1222h127l-215 -1218q-16 -91 -16 -127q0 -46 25 -60q18 -10 53 -10q15 0 34 2l-16 -94q-35 -6 -102 -6q-63 0 -97 24.5t-34 87.5z" />
<glyph unicode="m" horiz-adv-x="1716" d="M55 0l189 1083h127l-33 -188l84 123q105 94 268 94q124 0 194 -62.5t81 -168.5l106 137q105 94 268 94q135 0 206 -73.5t71 -196.5q0 -67 -25 -203l-110 -639h-127l102 582q27 169 27 223q0 205 -201 205q-120 0 -218 -118.5t-134 -324.5l-99 -567h-126l102 582 q27 156 27 223q0 205 -201 205q-119 0 -217 -118t-135 -325l-99 -567h-127z" />
<glyph unicode="n" horiz-adv-x="1169" d="M55 0l191 1083h127l-37 -211l80 123q139 117 323 117q158 0 242 -76t84 -209q0 -75 -25 -221l-110 -606h-127l106 592q25 141 25 201q0 101 -58 159q-57 57 -174 56h-4q-150 -2 -265 -116t-157 -353l-94 -539h-127z" />
<glyph unicode="o" horiz-adv-x="1175" d="M55 446q0 73 16 148.5t47 150.5t82.5 141t117 116.5t156 80t194.5 29.5q114 0 202.5 -38t142 -104.5t80.5 -150.5t27 -182q0 -89 -22 -179.5t-70.5 -178.5t-118 -156t-173.5 -110t-228 -42q-115 0 -203.5 38t-142 104t-80.5 150.5t-27 182.5zM195 449q0 -170 87 -273.5 t242 -103.5q88 0 163.5 34t128.5 90.5t91 129.5t56 152t18 157q0 169 -87.5 272t-242.5 103q-88 0 -164 -34t-128.5 -90.5t-90.5 -129.5t-55.5 -151t-17.5 -156z" />
<glyph unicode="p" horiz-adv-x="1206" d="M-16 -401l264 1484h127l-35 -198l92 116q129 111 326 111q188 0 291.5 -123t103.5 -317q0 -104 -24 -203.5t-75 -190t-123 -158.5t-174 -108.5t-222 -40.5q-88 0 -160 30t-113 85l-45 115l-106 -602h-127zM260 356q1 -61 21.5 -113t54.5 -90t89 -59.5t126 -21.5 q108 0 197.5 51t147 135.5t89 190t31.5 217.5q0 156 -75.5 250t-217.5 94q-159 0 -278.5 -107t-161.5 -336l-15 -82q-9 -59 -9 -113q0 -8 1 -16z" />
<glyph unicode="q" horiz-adv-x="1204" d="M53 412q0 103 24.5 202.5t75.5 190t122.5 158.5t174 108.5t222.5 40.5q89 0 160 -30.5t112 -86.5l45 -112l35 200l127 -2l-264 -1482h-127l106 600l-92 -117q-126 -111 -325 -111q-188 0 -292 123.5t-104 317.5zM190 418q0 -156 75.5 -251t217.5 -95q76 0 143 24 t127 74.5t105 138.5t66 207l14 82q10 56 10 106q0 52 -11 99q-21 91 -93.5 149t-188.5 58q-108 0 -197.5 -51t-147 -135t-89 -189t-31.5 -217z" />
<glyph unicode="r" horiz-adv-x="620" d="M55 0l193 1085h127l-37 -196l102 137q95 82 201 82q40 0 61 -8l-18 -101q-15 1 -29 1q-49 0 -95 -13q-58 -17 -113 -59.5t-96 -123t-62 -192.5v-4l-107 -608h-127z" />
<glyph unicode="s" horiz-adv-x="927" d="M0 307h131q16 -244 283 -244q113 0 184.5 58t71.5 153q0 83 -57.5 133t-192.5 89q-65 19 -112.5 40.5t-90.5 55.5t-65.5 84.5t-22.5 116.5q0 135 106 227t289 92q169 0 258.5 -88.5t94.5 -243.5h-132q-18 230 -231 230q-119 0 -182.5 -60t-63.5 -145q0 -80 55 -127.5 t160 -77.5q167 -48 245.5 -119.5t78.5 -195.5q0 -145 -112 -233.5t-296 -88.5q-193 0 -293.5 94.5t-105.5 249.5z" />
<glyph unicode="t" horiz-adv-x="575" d="M104 129q0 56 21 166l121 682h-140l19 98h137l43 240h127l-43 -240h195l-17 -98h-196l-119 -680q-16 -82 -16 -125q0 -60 42 -78q23 -9 61 -9q33 0 77 7l-17 -96q-70 -12 -116 -12q-89 0 -134 35t-45 110z" />
<glyph unicode="u" horiz-adv-x="1161" d="M96 256q0 81 27 221l108 606h127l-106 -591q-23 -132 -23 -203q0 -100 57 -158q56 -57 173 -57h4q72 2 136.5 28.5t121.5 81t100 146.5t64 215l94 538h127l-188 -1083h-127l34 209l-80 -121q-74 -63 -151.5 -90t-171.5 -27q-158 0 -242 76t-84 209z" />
<glyph unicode="v" horiz-adv-x="995" d="M88 1083h143l181 -981l528 981h145l-610 -1083h-164z" />
<glyph unicode="w" horiz-adv-x="1523" d="M88 1083h143l107 -956l428 954h164l98 -952l447 954h139l-537 -1083h-151l-99 956l-434 -956h-155z" />
<glyph unicode="x" horiz-adv-x="944" d="M-98 0l485 545l-268 538h147l213 -450l389 450h154l-485 -542l288 -541h-151l-230 451l-391 -451h-151z" />
<glyph unicode="y" horiz-adv-x="995" d="M-72 -424l17 107q29 -7 63 -7q82 0 147.5 52.5t141.5 189.5l25 41l-234 1124h143l181 -987l528 987l145 -2l-608 -1081q-99 -176 -173 -268t-141 -127t-157 -35q-40 0 -78 6z" />
<glyph unicode="z" horiz-adv-x="962" d="M-43 0l16 98l832 873h-629l17 104h786l-18 -104l-830 -869h688l-18 -102h-844z" />
<glyph unicode="{" horiz-adv-x="608" d="M154 672l16 90q126 12 170.5 98t44.5 297q-1 125 12.5 204t50 134.5t100 78.5t163.5 23h28l-16 -88h-29q-132 0 -174.5 -68.5t-42.5 -262.5q0 -76 -5 -135t-20 -119t-40.5 -100.5t-68 -70t-101.5 -38.5q72 -9 108.5 -51.5t36.5 -108.5q0 -95 -72 -295 q-39 -106 -51 -152.5t-12 -84.5q0 -99 162 -99h28l-14 -88h-29q-117 0 -179 41t-62 139q0 42 13.5 92t57.5 173q64 168 64 264q0 113 -139 127z" />
<glyph unicode="|" horiz-adv-x="512" d="M35 -410l360 2048h92l-360 -2048h-92z" />
<glyph unicode="}" horiz-adv-x="608" d="M-70 -164l17 88h28q132 0 175 69t43 263q0 76 5 135t20 119t40.5 100.5t68 70t101.5 38.5q-72 9 -108.5 51.5t-36.5 108.5q0 97 71 297q40 108 52 153t12 82q0 98 -162 98h-29l15 88h28q117 0 179.5 -41t62.5 -139q0 -41 -13.5 -89.5t-58.5 -174.5q-63 -165 -63 -264 q0 -113 139 -127l-14 -90q-127 -12 -172 -98.5t-45 -297.5q1 -125 -12.5 -204t-50 -134.5t-100 -78.5t-163.5 -23h-29z" />
<glyph unicode="~" horiz-adv-x="1204" d="M137 461q46 260 252 260q57 0 101 -17.5t133 -70.5q74 -45 114.5 -62.5t81.5 -17.5q61 0 94.5 43t49.5 129h88q-46 -260 -256 -260q-55 0 -99 17.5t-133 70.5q-71 44 -113 62t-83 18q-60 0 -94 -43.5t-50 -128.5h-86z" />
<glyph unicode="&#xa1;" horiz-adv-x="452" d="M-14 -332l225 1100h113l-191 -1100h-147zM211 993q0 50 34.5 84.5t82.5 34.5q36 0 58 -22t22 -56q0 -50 -34 -83t-81 -33q-38 0 -60 20.5t-22 54.5z" />
<glyph unicode="&#xa2;" d="M66 412q0 123 36.5 240t104 215t174.5 163t237 78l29 162h92l-28 -160q168 -9 257 -110.5t89 -270.5h-133q-6 263 -232 281l-166 -936q110 11 196 78t136 186h131q-141 -344 -481 -365l-27 -157h-92l29 157q-160 14 -256 128.5t-96 310.5zM203 416q0 -154 63.5 -240 t169.5 -102l164 934q-175 -26 -286 -194t-111 -398z" />
<glyph unicode="&#xa3;" horiz-adv-x="1150" d="M-12 0l16 94q69 21 125 54.5t93 73t61.5 86.5t35.5 94t11 96q0 75 -35 178h-170l16 88h123q-35 119 -35 244q0 80 29.5 155.5t84.5 138.5t144.5 101.5t200.5 38.5q82 0 146 -21t105 -57t69 -88.5t41.5 -109.5t17.5 -126h-135q-8 149 -69.5 224t-196.5 75 q-132 0 -215.5 -97t-83.5 -232q0 -119 45 -246h460l-16 -88h-420q29 -95 29 -162q0 -131 -59.5 -228.5t-202.5 -179.5h745l-18 -106h-942z" />
<glyph unicode="&#xa4;" d="M111 276l143 123q-49 81 -49 183q0 72 28 145t82 131l-90 111l74 61l92 -108q99 63 230 63q122 0 206 -84l146 125l53 -65l-147 -125q49 -84 49 -185q0 -72 -28 -144.5t-81 -129.5l88 -111l-73 -61l-91 108q-97 -65 -233 -65q-118 0 -205 84l-141 -119zM301 590 q0 -113 63.5 -182.5t163.5 -69.5q92 0 163.5 48t105.5 116.5t34 140.5q0 115 -63.5 183.5t-163.5 68.5q-71 0 -130 -28t-96 -72.5t-57 -98t-20 -106.5z" />
<glyph unicode="&#xa5;" d="M106 401l17 88h348l23 129l-7 15h-340l15 86h291l-279 694h150l256 -690l501 690h150l-529 -694h285l-16 -86h-334l-19 -25l-20 -119h348l-14 -88h-350l-70 -401h-127l70 401h-349z" />
<glyph unicode="&#xa6;" horiz-adv-x="512" d="M49 -328l123 697h92l-123 -697h-92zM233 717l123 696h93l-123 -696h-93z" />
<glyph unicode="&#xa7;" horiz-adv-x="1124" d="M43 -6h131q17 -126 91 -188t184 -62q123 0 196.5 57.5t73.5 161.5q0 95 -67 154t-234 110q-74 24 -130 52.5t-104.5 69t-74 98t-25.5 128.5q0 111 78 200t221 126q-84 81 -84 211q0 62 25 120t71.5 105.5t121.5 76t167 28.5q158 0 250 -89t110 -243h-133 q-35 231 -243 231q-106 0 -169 -63.5t-63 -163.5q0 -88 67.5 -143.5t194.5 -91.5q182 -51 273.5 -138t91.5 -221q0 -116 -79.5 -203.5t-221.5 -119.5q94 -88 94 -222q0 -148 -121 -239.5t-305 -91.5q-102 0 -183 36t-137 116.5t-67 197.5zM221 588q0 -99 68.5 -156.5 t195.5 -95.5q92 -29 152 -57q131 8 210 70t79 161q0 95 -70.5 155t-226.5 107q-73 22 -133 51q-126 -14 -200.5 -76t-74.5 -159z" />
<glyph unicode="&#xa8;" horiz-adv-x="614" d="M109 1280q0 33 27.5 59.5t60.5 26.5q28 0 44.5 -17.5t16.5 -45.5q0 -33 -27.5 -59.5t-60.5 -26.5q-27 0 -44 18t-17 45zM356 1280q0 33 27.5 59.5t60.5 26.5q28 0 46 -17.5t18 -45.5q0 -33 -28 -59.5t-62 -26.5q-27 0 -44.5 18t-17.5 45z" />
<glyph unicode="&#xa9;" horiz-adv-x="1716" d="M90 727q0 162 60 307t162.5 249t244.5 165t301 61t302 -61t245.5 -165t162.5 -249t60 -307t-60 -307t-162.5 -249t-245.5 -165t-302 -61t-301 61t-244.5 165t-162.5 249t-60 307zM186 727q0 -143 52.5 -271.5t142 -220t214 -145t263.5 -53.5t264 53.5t215 145t142.5 220 t52.5 271.5t-52.5 271.5t-142.5 220.5t-215 146t-264 54t-263.5 -54t-214 -146t-142 -220.5t-52.5 -271.5zM455 725q0 211 115 335t298 124q152 0 252.5 -84t126.5 -230h-135q-18 97 -78 153t-166 56q-129 0 -201.5 -97.5t-72.5 -252.5q0 -157 74.5 -254.5t195.5 -97.5 q98 0 163 56t83 151h135q-33 -147 -132.5 -229.5t-260.5 -82.5q-173 0 -285 125t-112 328z" />
<glyph unicode="&#xab;" horiz-adv-x="1038" d="M221 508l340 340h129l-350 -350l213 -330h-111zM518 508l340 340h129l-350 -350l213 -330h-111z" />
<glyph unicode="&#xac;" d="M172 684l14 88h744l-62 -342h-90l43 254h-649z" />
<glyph unicode="&#xad;" horiz-adv-x="561" d="M57 535l17 88h430l-17 -88h-430z" />
<glyph unicode="&#xae;" horiz-adv-x="1050" d="M84 1085q0 89 33.5 173.5t94 153.5t156 111t210.5 42q180 0 286.5 -107.5t106.5 -271.5q0 -90 -33.5 -175t-94 -153.5t-156 -110.5t-210.5 -42q-182 0 -287.5 107t-105.5 273zM162 1085q0 -134 88 -219.5t239 -85.5q124 0 217.5 60t139 151t45.5 195q0 133 -88 218 t-240 85q-93 0 -170.5 -34.5t-127 -92t-76.5 -129.5t-27 -148zM350 932l74 418h125q33 0 51 -2q52 -6 81.5 -35.5t29.5 -75.5q0 -42 -27 -73.5t-76 -43.5q47 -14 47 -73q-3 -62 15 -115h-88q-11 43 -11 96q0 30 -13 41.5t-42 11.5h-61l-25 -149h-80zM467 1151h47q25 0 39 2 q34 3 53 21t19 49q0 49 -52 59q-12 2 -38 2h-46z" />
<glyph unicode="&#xaf;" horiz-adv-x="614" d="M92 1249l17 82h413l-16 -82h-414z" />
<glyph unicode="&#xb0;" horiz-adv-x="598" d="M197 1270q0 113 74 188.5t194 75.5q92 0 149.5 -56t57.5 -139q0 -114 -75 -189t-196 -75q-92 0 -148 55t-56 140zM295 1276q0 -55 32 -85t85 -30q69 0 114 46t45 126q0 53 -31.5 83t-84.5 30q-69 0 -114.5 -45.5t-45.5 -124.5z" />
<glyph unicode="&#xb1;" d="M45 0l16 88h844l-14 -88h-846zM152 608l16 88h377l67 387h90l-67 -387h377l-15 -88h-376l-70 -391h-92l69 391h-376z" />
<glyph unicode="&#xb4;" horiz-adv-x="614" d="M233 1188l166 225h123l-203 -225h-86z" />
<glyph unicode="&#xb6;" horiz-adv-x="1112" d="M160 981q0 54 14 110t45 112t76 100t112.5 73.5t147.5 34.5q37 2 117 2h446l-291 -1638h-92l275 1550h-215l-275 -1550h-92l156 880h-47q-80 0 -115 2q-83 5 -144 53.5t-89.5 118.5t-28.5 152z" />
<glyph unicode="&#xb7;" horiz-adv-x="362" d="M88 604q0 52 37.5 88.5t87.5 36.5q39 0 63.5 -23.5t24.5 -60.5q0 -52 -37.5 -88.5t-87.5 -36.5q-39 0 -63.5 23.5t-24.5 60.5z" />
<glyph unicode="&#xb8;" horiz-adv-x="614" d="M76 -414l14 68q43 -14 105 -14q76 0 117.5 30.5t41.5 81.5q0 52 -46.5 77.5t-135.5 16.5l121 170l82 -4l-74 -102q68 -10 105.5 -50t37.5 -100q0 -95 -72 -142.5t-188 -47.5q-62 0 -108 16z" />
<glyph unicode="&#xbb;" horiz-adv-x="1038" d="M39 168l350 350l-213 330h111l221 -340l-340 -340h-129zM336 168l350 350l-213 330h111l221 -340l-340 -340h-129z" />
<glyph unicode="&#xbf;" horiz-adv-x="1069" d="M57 -61q0 121 62.5 224.5t222.5 248.5q119 110 166 179.5t70 174.5h124q-17 -110 -66.5 -187.5t-182.5 -209.5q-152 -150 -205 -238t-53 -182q0 -93 65.5 -150t175.5 -57q141 0 236 85t127 243h131q-34 -196 -173 -313t-337 -117q-170 0 -266.5 86.5t-96.5 212.5z M578 993q0 49 34.5 83t81.5 34q36 0 59 -22t23 -56q0 -49 -35 -83t-82 -34q-36 0 -58.5 22t-22.5 56z" />
<glyph unicode="&#xc0;" horiz-adv-x="1302" d="M-31 0l772 1413h183l260 -1413h-137l-93 518h-561l-276 -518h-148zM451 625h485l-119 686zM705 1700h120l80 -193h-86z" />
<glyph unicode="&#xc1;" horiz-adv-x="1302" d="M-31 0l772 1413h183l260 -1413h-137l-93 518h-561l-276 -518h-148zM451 625h485l-119 686zM805 1507l143 193h123l-180 -193h-86z" />
<glyph unicode="&#xc2;" horiz-adv-x="1302" d="M-31 0l772 1413h183l260 -1413h-137l-93 518h-561l-276 -518h-148zM451 625h485l-119 686zM676 1507l170 193h94l102 -193h-104l-55 133l-103 -133h-104z" />
<glyph unicode="&#xc3;" horiz-adv-x="1302" d="M-31 0l772 1413h183l260 -1413h-137l-93 518h-561l-276 -518h-148zM451 625h485l-119 686zM659 1548q19 121 115 121q42 0 121 -27q62 -22 88 -22q34 0 39 41h65q-10 -65 -38.5 -93t-75.5 -28q-41 0 -121 27q-62 22 -88 22q-34 0 -39 -41h-66z" />
<glyph unicode="&#xc4;" horiz-adv-x="1302" d="M-31 0l772 1413h183l260 -1413h-137l-93 518h-561l-276 -518h-148zM451 625h485l-119 686zM682 1591q0 34 27.5 60t60.5 26q27 0 44 -17t17 -44q0 -33 -27.5 -59.5t-60.5 -26.5q-27 0 -44 17t-17 44zM913 1591q0 35 28 60.5t63 25.5q27 0 44 -17t17 -44 q0 -33 -27.5 -59.5t-60.5 -26.5q-28 0 -46 17.5t-18 43.5z" />
<glyph unicode="&#xc5;" horiz-adv-x="1302" d="M-31 0l772 1413h183l260 -1413h-137l-93 518h-561l-276 -518h-148zM451 625h485l-119 686zM711 1595q0 78 55.5 125t132.5 47q66 0 105.5 -34t39.5 -88q0 -80 -55.5 -127.5t-132.5 -47.5q-67 0 -106 34.5t-39 90.5zM793 1602q0 -30 18 -49t51 -19q42 0 71.5 28.5 t29.5 73.5q0 30 -19 49t-51 19q-42 0 -71 -28t-29 -74z" />
<glyph unicode="&#xc6;" horiz-adv-x="1908" d="M-125 0l1114 1413h983l-20 -104h-789l-67 -549h706l-18 -107h-701l-67 -549h745l-18 -104h-866l65 518h-502l-405 -518h-160zM522 625h434l82 659z" />
<glyph unicode="&#xc7;" horiz-adv-x="1406" d="M119 543q0 79 14 163t45 172.5t76 169.5t110.5 153.5t144.5 125.5t183 84t221 31q234 0 357.5 -116.5t136.5 -317.5h-135q-11 155 -102 243t-271 88q-126 0 -233 -48.5t-181 -129t-127 -185t-77.5 -217t-24.5 -224.5q0 -214 114.5 -337.5t295.5 -123.5q168 0 292 83 t193 232h133q-185 -418 -637 -418l-45 -61q69 -10 107.5 -50t38.5 -100q0 -95 -72.5 -142.5t-188.5 -47.5q-62 0 -108 16l12 68q43 -14 105 -14q77 0 118 30.5t41 81.5q0 52 -46 77.5t-136 16.5l94 129q-213 25 -330.5 174t-117.5 394z" />
<glyph unicode="&#xc8;" horiz-adv-x="1171" d="M88 0l250 1413h897l-21 -104h-768l-96 -549h715l-18 -107h-717l-97 -549h791l-18 -104h-918zM653 1700h121l80 -193h-86z" />
<glyph unicode="&#xc9;" horiz-adv-x="1171" d="M88 0l250 1413h897l-21 -104h-768l-96 -549h715l-18 -107h-717l-97 -549h791l-18 -104h-918zM754 1507l143 193h123l-180 -193h-86z" />
<glyph unicode="&#xca;" horiz-adv-x="1171" d="M88 0l250 1413h897l-21 -104h-768l-96 -549h715l-18 -107h-717l-97 -549h791l-18 -104h-918zM625 1507l168 193h96l102 -193h-104l-58 133l-100 -133h-104z" />
<glyph unicode="&#xcb;" horiz-adv-x="1171" d="M88 0l250 1413h897l-21 -104h-768l-96 -549h715l-18 -107h-717l-97 -549h791l-18 -104h-918zM631 1591q0 34 27.5 60t60.5 26q27 0 44 -17t17 -44q0 -33 -27.5 -59.5t-60.5 -26.5q-27 0 -44 17t-17 44zM862 1591q0 35 28 60.5t62 25.5q28 0 45 -17.5t17 -43.5 q0 -33 -27.5 -59.5t-60.5 -26.5q-28 0 -46 17.5t-18 43.5z" />
<glyph unicode="&#xcc;" horiz-adv-x="452" d="M88 0l250 1413h127l-250 -1413h-127zM264 1700h123l78 -193h-84z" />
<glyph unicode="&#xcd;" horiz-adv-x="452" d="M88 0l250 1413h127l-250 -1413h-127zM367 1507l143 193h123l-180 -193h-86z" />
<glyph unicode="&#xce;" horiz-adv-x="452" d="M88 0l250 1413h127l-250 -1413h-127zM238 1507l168 193h94l104 -193h-104l-58 133l-100 -133h-104z" />
<glyph unicode="&#xcf;" horiz-adv-x="452" d="M88 0l250 1413h127l-250 -1413h-127zM242 1591q0 35 28 60.5t62 25.5q27 0 44 -17t17 -44q0 -33 -27.5 -59.5t-60.5 -26.5q-28 0 -45.5 17.5t-17.5 43.5zM475 1591q0 34 27.5 60t60.5 26q29 0 46.5 -17t17.5 -44q0 -33 -28 -59.5t-62 -26.5q-27 0 -44.5 17t-17.5 44z" />
<glyph unicode="&#xd0;" horiz-adv-x="1425" d="M35 639l14 88h168l121 686h373q105 0 166 -6q103 -9 191 -49t157.5 -111t109 -182t39.5 -252q0 -116 -30.5 -227t-92 -210.5t-147.5 -177.5t-204.5 -129t-256.5 -63q-74 -6 -182 -6h-373l113 639h-166zM233 106h256q86 0 166 9q114 14 210 59t163.5 111.5t114.5 151 t69.5 178.5t22.5 194q0 224 -104.5 347.5t-274.5 143.5q-53 7 -154 7h-256l-102 -580h303l-14 -88h-305z" />
<glyph unicode="&#xd1;" horiz-adv-x="1378" d="M88 0l250 1413h194l502 -1294l230 1294h127l-250 -1413h-195l-506 1296l-225 -1296h-127zM684 1548q16 121 113 121q45 0 121 -27q65 -22 88 -22q33 0 41 41h63q-10 -65 -38.5 -93t-74.5 -28q-43 0 -120 27q-65 22 -89 22q-32 0 -40 -41h-64z" />
<glyph unicode="&#xd2;" horiz-adv-x="1527" d="M127 586q0 126 30 248t94.5 232.5t155.5 193.5t221.5 132.5t284.5 49.5q173 0 302 -80.5t195.5 -219t66.5 -315.5q0 -126 -30.5 -248t-94.5 -232.5t-155 -193.5t-222 -132.5t-285 -49.5q-172 0 -301 80.5t-195.5 219t-66.5 315.5zM266 586q0 -232 124.5 -372t326.5 -140 q119 0 222 45t175.5 120t124 172.5t76 203.5t24.5 212q0 233 -124.5 372.5t-325.5 139.5q-120 0 -223.5 -45t-175.5 -120t-123.5 -172.5t-76 -203.5t-24.5 -212zM778 1700h123l78 -193h-84z" />
<glyph unicode="&#xd3;" horiz-adv-x="1527" d="M127 586q0 126 30 248t94.5 232.5t155.5 193.5t221.5 132.5t284.5 49.5q173 0 302 -80.5t195.5 -219t66.5 -315.5q0 -126 -30.5 -248t-94.5 -232.5t-155 -193.5t-222 -132.5t-285 -49.5q-172 0 -301 80.5t-195.5 219t-66.5 315.5zM266 586q0 -232 124.5 -372t326.5 -140 q119 0 222 45t175.5 120t124 172.5t76 203.5t24.5 212q0 233 -124.5 372.5t-325.5 139.5q-120 0 -223.5 -45t-175.5 -120t-123.5 -172.5t-76 -203.5t-24.5 -212zM881 1507l143 193h123l-180 -193h-86z" />
<glyph unicode="&#xd4;" horiz-adv-x="1527" d="M127 586q0 126 30 248t94.5 232.5t155.5 193.5t221.5 132.5t284.5 49.5q173 0 302 -80.5t195.5 -219t66.5 -315.5q0 -126 -30.5 -248t-94.5 -232.5t-155 -193.5t-222 -132.5t-285 -49.5q-172 0 -301 80.5t-195.5 219t-66.5 315.5zM266 586q0 -232 124.5 -372t326.5 -140 q119 0 222 45t175.5 120t124 172.5t76 203.5t24.5 212q0 233 -124.5 372.5t-325.5 139.5q-120 0 -223.5 -45t-175.5 -120t-123.5 -172.5t-76 -203.5t-24.5 -212zM752 1507l168 193h94l104 -193h-104l-58 133l-100 -133h-104z" />
<glyph unicode="&#xd5;" horiz-adv-x="1527" d="M127 586q0 126 30 248t94.5 232.5t155.5 193.5t221.5 132.5t284.5 49.5q173 0 302 -80.5t195.5 -219t66.5 -315.5q0 -126 -30.5 -248t-94.5 -232.5t-155 -193.5t-222 -132.5t-285 -49.5q-172 0 -301 80.5t-195.5 219t-66.5 315.5zM266 586q0 -232 124.5 -372t326.5 -140 q119 0 222 45t175.5 120t124 172.5t76 203.5t24.5 212q0 233 -124.5 372.5t-325.5 139.5q-120 0 -223.5 -45t-175.5 -120t-123.5 -172.5t-76 -203.5t-24.5 -212zM735 1548q10 65 38.5 93t74.5 28q44 0 121 -27q65 -22 88 -22q33 0 41 41h63q-16 -121 -112 -121 q-45 0 -121 27q-65 22 -88 22q-33 0 -41 -41h-64z" />
<glyph unicode="&#xd6;" horiz-adv-x="1527" d="M127 586q0 126 30 248t94.5 232.5t155.5 193.5t221.5 132.5t284.5 49.5q173 0 302 -80.5t195.5 -219t66.5 -315.5q0 -126 -30.5 -248t-94.5 -232.5t-155 -193.5t-222 -132.5t-285 -49.5q-172 0 -301 80.5t-195.5 219t-66.5 315.5zM266 586q0 -232 124.5 -372t326.5 -140 q119 0 222 45t175.5 120t124 172.5t76 203.5t24.5 212q0 233 -124.5 372.5t-325.5 139.5q-120 0 -223.5 -45t-175.5 -120t-123.5 -172.5t-76 -203.5t-24.5 -212zM756 1591q0 35 28 60.5t62 25.5q27 0 44 -17t17 -44q0 -33 -27.5 -59.5t-60.5 -26.5q-28 0 -45.5 17.5 t-17.5 43.5zM989 1591q0 34 27.5 60t60.5 26q29 0 46.5 -17t17.5 -44q0 -33 -28 -59.5t-62 -26.5q-27 0 -44.5 17t-17.5 44z" />
<glyph unicode="&#xd7;" d="M156 356l344 293l-236 287l76 63l235 -286l345 293l63 -76l-346 -293l237 -287l-75 -65l-238 288l-342 -292z" />
<glyph unicode="&#xd8;" horiz-adv-x="1521" d="M20 100l185 158q-74 139 -74 328q0 126 30.5 248t94.5 232.5t155 193.5t222 132.5t285 49.5q142 0 253 -54t185 -153l168 143l53 -65l-174 -150q78 -150 78 -336q0 -126 -30.5 -248t-94.5 -232.5t-155 -193.5t-222 -132.5t-285 -49.5q-145 0 -257.5 55.5t-186.5 157.5 l-174 -149zM268 586q0 -130 43 -238l944 803q-61 90 -154 139t-210 49q-119 0 -222.5 -45t-175.5 -120t-124 -172.5t-76.5 -203.5t-24.5 -212zM350 270q60 -94 155 -145t214 -51q120 0 223 45t175 120t123.5 172.5t76 203.5t24.5 212q0 137 -45 246z" />
<glyph unicode="&#xd9;" horiz-adv-x="1335" d="M168 342q0 84 18 176l158 895h127l-156 -887q-20 -117 -20 -180q0 -124 80 -198t239 -74q175 0 278.5 80.5t145.5 240.5q17 66 27 125l156 893h127l-160 -903q-11 -63 -27 -131q-100 -408 -565 -408q-209 0 -318.5 98t-109.5 273zM711 1700h120l80 -193h-86z" />
<glyph unicode="&#xda;" horiz-adv-x="1335" d="M168 342q0 84 18 176l158 895h127l-156 -887q-20 -117 -20 -180q0 -124 80 -198t239 -74q175 0 278.5 80.5t145.5 240.5q17 66 27 125l156 893h127l-160 -903q-11 -63 -27 -131q-100 -408 -565 -408q-209 0 -318.5 98t-109.5 273zM811 1507l143 193h123l-180 -193h-86z " />
<glyph unicode="&#xdb;" horiz-adv-x="1335" d="M168 342q0 84 18 176l158 895h127l-156 -887q-20 -117 -20 -180q0 -124 80 -198t239 -74q175 0 278.5 80.5t145.5 240.5q17 66 27 125l156 893h127l-160 -903q-11 -63 -27 -131q-100 -408 -565 -408q-209 0 -318.5 98t-109.5 273zM682 1507l168 193h96l103 -193h-105 l-57 133l-101 -133h-104z" />
<glyph unicode="&#xdc;" horiz-adv-x="1335" d="M168 342q0 84 18 176l158 895h127l-156 -887q-20 -117 -20 -180q0 -124 80 -198t239 -74q175 0 278.5 80.5t145.5 240.5q17 66 27 125l156 893h127l-160 -903q-11 -63 -27 -131q-100 -408 -565 -408q-209 0 -318.5 98t-109.5 273zM688 1591q0 34 27.5 60t60.5 26 q28 0 45 -17.5t17 -43.5q0 -33 -27.5 -59.5t-60.5 -26.5q-28 0 -45 17t-17 44zM920 1591q0 35 28 60.5t62 25.5q27 0 44 -17t17 -44q0 -33 -27.5 -59.5t-60.5 -26.5q-28 0 -45.5 17.5t-17.5 43.5z" />
<glyph unicode="&#xdd;" horiz-adv-x="1163" d="M197 1413h133l297 -739l547 739h151l-655 -862l-97 -551h-127l99 557zM725 1507l141 193h125l-180 -193h-86z" />
<glyph unicode="&#xde;" horiz-adv-x="1191" d="M88 0l250 1413h127l-37 -203h270q112 0 191 -10q135 -18 214 -91.5t79 -201.5q0 -41 -8 -80q-20 -113 -81.5 -197t-147 -130t-189.5 -60q-68 -8 -195 -8h-270l-76 -432h-127zM311 541h271q110 0 174 10q108 16 183.5 82t98.5 190q4 23 4 62q0 172 -192 207 q-59 10 -170 10h-270z" />
<glyph unicode="&#xdf;" horiz-adv-x="1140" d="M55 0l174 991q17 93 40 168t65.5 149t98.5 124t141 81t192 31q172 0 268 -82.5t96 -218.5q0 -140 -96 -260q-112 -52 -156 -98t-44 -109q0 -44 19 -80.5t69 -89.5q71 -71 107 -137t36 -145q0 -62 -27 -120t-78 -106t-136.5 -77t-192.5 -29q-110 0 -205 22l18 105 q111 -27 199 -27q74 0 131 21t89 55.5t47.5 72.5t15.5 78q0 106 -111 222q-66 71 -91.5 119t-25.5 112q0 83 54 149t178 126q63 90 63 194q0 93 -62.5 147t-178.5 54q-316 0 -394 -438l-176 -1004h-127z" />
<glyph unicode="&#xe0;" horiz-adv-x="1028" d="M39 242q0 115 60.5 199.5t167 131t242 63.5t294.5 5l6 41q18 98 18 147q0 181 -202 181q-267 0 -330 -248h-131q34 160 158.5 254t306.5 94q163 0 245 -71t82 -193q0 -41 -18 -160l-70 -383q-21 -126 -32 -303h-129l18 197l-72 -103q-114 -123 -321 -123 q-124 0 -208.5 70t-84.5 201zM176 254q0 -87 57.5 -134.5t153.5 -47.5q129 0 240 102t137 244l20 127q-174 18 -311 -9.5t-217 -100t-80 -181.5zM502 1413h123l86 -225h-86z" />
<glyph unicode="&#xe1;" horiz-adv-x="1028" d="M39 242q0 115 60.5 199.5t167 131t242 63.5t294.5 5l6 41q18 98 18 147q0 181 -202 181q-267 0 -330 -248h-131q34 160 158.5 254t306.5 94q163 0 245 -71t82 -193q0 -41 -18 -160l-70 -383q-21 -126 -32 -303h-129l18 197l-72 -103q-114 -123 -321 -123 q-124 0 -208.5 70t-84.5 201zM176 254q0 -87 57.5 -134.5t153.5 -47.5q129 0 240 102t137 244l20 127q-174 18 -311 -9.5t-217 -100t-80 -181.5zM606 1188l166 225h123l-203 -225h-86z" />
<glyph unicode="&#xe2;" horiz-adv-x="1028" d="M39 242q0 115 60.5 199.5t167 131t242 63.5t294.5 5l6 41q18 98 18 147q0 181 -202 181q-267 0 -330 -248h-131q34 160 158.5 254t306.5 94q163 0 245 -71t82 -193q0 -41 -18 -160l-70 -383q-21 -126 -32 -303h-129l18 197l-72 -103q-114 -123 -321 -123 q-124 0 -208.5 70t-84.5 201zM176 254q0 -87 57.5 -134.5t153.5 -47.5q129 0 240 102t137 244l20 127q-174 18 -311 -9.5t-217 -100t-80 -181.5zM479 1188l176 225h95l94 -225h-101l-55 153l-110 -153h-99z" />
<glyph unicode="&#xe3;" horiz-adv-x="1028" d="M39 242q0 115 60.5 199.5t167 131t242 63.5t294.5 5l6 41q18 98 18 147q0 181 -202 181q-267 0 -330 -248h-131q34 160 158.5 254t306.5 94q163 0 245 -71t82 -193q0 -41 -18 -160l-70 -383q-21 -126 -32 -303h-129l18 197l-72 -103q-114 -123 -321 -123 q-124 0 -208.5 70t-84.5 201zM176 254q0 -87 57.5 -134.5t153.5 -47.5q129 0 240 102t137 244l20 127q-174 18 -311 -9.5t-217 -100t-80 -181.5zM467 1251q10 66 38 94.5t75 28.5q46 0 120 -26q68 -23 88 -23q33 0 41 41h64q-16 -123 -113 -123q-44 0 -121 27q-65 22 -88 22 q-33 0 -41 -41h-63z" />
<glyph unicode="&#xe4;" horiz-adv-x="1028" d="M39 242q0 115 60.5 199.5t167 131t242 63.5t294.5 5l6 41q18 98 18 147q0 181 -202 181q-267 0 -330 -248h-131q34 160 158.5 254t306.5 94q163 0 245 -71t82 -193q0 -41 -18 -160l-70 -383q-21 -126 -32 -303h-129l18 197l-72 -103q-114 -123 -321 -123 q-124 0 -208.5 70t-84.5 201zM176 254q0 -87 57.5 -134.5t153.5 -47.5q129 0 240 102t137 244l20 127q-174 18 -311 -9.5t-217 -100t-80 -181.5zM477 1280q0 33 27.5 59.5t60.5 26.5q28 0 46 -17.5t18 -45.5q0 -33 -28 -59.5t-62 -26.5q-27 0 -44.5 18t-17.5 45zM725 1280 q0 33 28 59.5t62 26.5q28 0 45 -17.5t17 -45.5q0 -33 -28 -59.5t-61 -26.5q-29 0 -46 18t-17 45z" />
<glyph unicode="&#xe5;" horiz-adv-x="1028" d="M39 242q0 115 60.5 199.5t167 131t242 63.5t294.5 5l6 41q18 98 18 147q0 181 -202 181q-267 0 -330 -248h-131q34 160 158.5 254t306.5 94q163 0 245 -71t82 -193q0 -41 -18 -160l-70 -383q-21 -126 -32 -303h-129l18 197l-72 -103q-114 -123 -321 -123 q-124 0 -208.5 70t-84.5 201zM176 254q0 -87 57.5 -134.5t153.5 -47.5q129 0 240 102t137 244l20 127q-174 18 -311 -9.5t-217 -100t-80 -181.5zM514 1288q0 78 58 131.5t137 53.5q63 0 102 -34t39 -91q0 -80 -58 -132.5t-139 -52.5q-62 0 -100.5 34t-38.5 91zM598 1296 q0 -34 18 -52.5t50 -18.5q43 0 71.5 32t28.5 82q0 33 -18 52.5t-50 19.5q-43 0 -71.5 -33t-28.5 -82z" />
<glyph unicode="&#xe6;" horiz-adv-x="1841" d="M35 225q0 183 178 282t549 99h69q21 126 21 174q0 234 -227 234q-120 0 -206.5 -63t-117.5 -185h-131q34 158 162.5 253t308.5 95q296 0 330 -223q84 108 196.5 165.5t241.5 57.5q188 0 284.5 -111t96.5 -296q0 -103 -29 -203h-821q-8 -74 -8 -105q0 -165 77 -246 t205 -81q118 0 220.5 70.5t154.5 199.5h131q-69 -181 -213.5 -276t-316.5 -95q-152 0 -245.5 72t-123.5 205l-71 -115q-89 -88 -182 -125t-222 -37q-134 0 -222.5 67.5t-88.5 186.5zM176 244q0 -80 58.5 -126t160.5 -46q148 0 263 102.5t145 269.5l10 60q-37 2 -108 2 q-529 0 -529 -262zM958 604h695q5 58 6 115.5t-16 111t-46 94t-82.5 65t-125.5 24.5q-150 0 -266.5 -106t-164.5 -304z" />
<glyph unicode="&#xe7;" horiz-adv-x="1077" d="M51 412q0 133 41 257.5t116 223.5t193.5 159t262.5 60q183 0 279.5 -103t96.5 -280h-133q-3 138 -70 210.5t-198 72.5q-129 0 -233 -79t-161 -215t-57 -302q0 -172 78 -258t203 -86t222.5 68t152.5 198h131q-144 -355 -502 -367l-45 -61q69 -10 107 -50t38 -100 q0 -95 -72 -142.5t-188 -47.5q-62 0 -108 16l12 68q43 -14 105 -14q77 0 118 30.5t41 81.5q0 52 -45.5 77.5t-134.5 16.5l90 129q-155 18 -247.5 131.5t-92.5 305.5z" />
<glyph unicode="&#xe8;" horiz-adv-x="1093" d="M51 406q0 94 21.5 190.5t69.5 189.5t116 165t169.5 116.5t221.5 44.5q188 0 289.5 -112t101.5 -295q0 -112 -26 -201h-819q-7 -58 -7 -94q0 -170 79 -254t204 -84q118 0 218.5 70t152.5 200h131q-47 -125 -132 -210t-184 -123t-211 -38q-180 0 -287.5 113t-107.5 322z M213 604h692q6 53 6 94q0 156 -76 234t-206 78q-87 0 -159.5 -34t-122 -93.5t-82.5 -129t-52 -149.5zM512 1413h123l84 -225h-84z" />
<glyph unicode="&#xe9;" horiz-adv-x="1093" d="M51 406q0 94 21.5 190.5t69.5 189.5t116 165t169.5 116.5t221.5 44.5q188 0 289.5 -112t101.5 -295q0 -112 -26 -201h-819q-7 -58 -7 -94q0 -170 79 -254t204 -84q118 0 218.5 70t152.5 200h131q-47 -125 -132 -210t-184 -123t-211 -38q-180 0 -287.5 113t-107.5 322z M213 604h692q6 53 6 94q0 156 -76 234t-206 78q-87 0 -159.5 -34t-122 -93.5t-82.5 -129t-52 -149.5zM616 1188l166 225h123l-203 -225h-86z" />
<glyph unicode="&#xea;" horiz-adv-x="1093" d="M51 406q0 94 21.5 190.5t69.5 189.5t116 165t169.5 116.5t221.5 44.5q188 0 289.5 -112t101.5 -295q0 -112 -26 -201h-819q-7 -58 -7 -94q0 -170 79 -254t204 -84q118 0 218.5 70t152.5 200h131q-47 -125 -132 -210t-184 -123t-211 -38q-180 0 -287.5 113t-107.5 322z M213 604h692q6 53 6 94q0 156 -76 234t-206 78q-87 0 -159.5 -34t-122 -93.5t-82.5 -129t-52 -149.5zM487 1188l179 225h92l96 -225h-100l-56 153l-110 -153h-101z" />
<glyph unicode="&#xeb;" horiz-adv-x="1093" d="M51 406q0 94 21.5 190.5t69.5 189.5t116 165t169.5 116.5t221.5 44.5q188 0 289.5 -112t101.5 -295q0 -112 -26 -201h-819q-7 -58 -7 -94q0 -170 79 -254t204 -84q118 0 218.5 70t152.5 200h131q-47 -125 -132 -210t-184 -123t-211 -38q-180 0 -287.5 113t-107.5 322z M213 604h692q6 53 6 94q0 156 -76 234t-206 78q-87 0 -159.5 -34t-122 -93.5t-82.5 -129t-52 -149.5zM487 1280q0 33 27.5 59.5t60.5 26.5q28 0 45 -17.5t17 -45.5q0 -33 -27.5 -59.5t-60.5 -26.5q-27 0 -44.5 18t-17.5 45zM735 1280q0 33 27.5 59.5t60.5 26.5 q28 0 46 -17.5t18 -45.5q0 -33 -28 -59.5t-62 -26.5q-27 0 -44.5 18t-17.5 45z" />
<glyph unicode="&#xec;" horiz-adv-x="425" d="M55 0l191 1083h127l-191 -1083h-127zM172 1413h123l84 -225h-86z" />
<glyph unicode="&#xed;" horiz-adv-x="425" d="M55 0l191 1083h127l-191 -1083h-127zM276 1188l164 225h125l-203 -225h-86z" />
<glyph unicode="&#xee;" horiz-adv-x="425" d="M55 0l191 1083h127l-191 -1083h-127zM147 1188l177 225h94l94 -225h-98l-56 153l-112 -153h-99z" />
<glyph unicode="&#xef;" horiz-adv-x="425" d="M55 0l191 1083h127l-191 -1083h-127zM145 1280q0 33 28.5 59.5t62.5 26.5q28 0 44.5 -17.5t16.5 -45.5q0 -33 -27.5 -59.5t-60.5 -26.5q-27 0 -45.5 18.5t-18.5 44.5zM395 1280q0 33 27.5 59.5t60.5 26.5q28 0 45 -17.5t17 -45.5q0 -33 -27.5 -59.5t-60.5 -26.5 q-27 0 -44.5 18t-17.5 45z" />
<glyph unicode="&#xf0;" horiz-adv-x="1177" d="M51 418q0 87 21.5 180t69 186t114.5 166t167 118.5t218 45.5q144 0 240 -72l63 -110q-13 243 -86 356l-305 -119l-29 78l279 109q-61 58 -162 94l92 76q118 -48 189 -125l161 61l29 -78l-141 -53q52 -88 75 -220.5t23 -330.5q0 -126 -21.5 -241.5t-70 -220t-118.5 -181 t-174 -121.5t-230 -45q-129 0 -222 61t-137.5 161t-44.5 225zM188 420q0 -170 76 -259t203 -89q97 0 177 40t132 104.5t87.5 149t51 170t15.5 171.5q0 147 -83 227t-210 80q-91 0 -167.5 -38.5t-127 -100t-86.5 -140.5t-52 -158.5t-16 -156.5z" />
<glyph unicode="&#xf1;" horiz-adv-x="1169" d="M55 0l191 1083h127l-37 -211l80 123q139 117 323 117q158 0 242 -76t84 -209q0 -75 -25 -221l-110 -606h-127l106 592q25 141 25 201q0 101 -57.5 158.5t-178.5 56.5q-150 -2 -265 -116t-157 -353l-94 -539h-127zM514 1251q10 66 38 94.5t75 28.5t121 -26q68 -23 88 -23 q33 0 41 41h63q-16 -123 -113 -123q-43 0 -120 27q-65 22 -89 22q-32 0 -40 -41h-64z" />
<glyph unicode="&#xf2;" horiz-adv-x="1175" d="M55 446q0 73 16 148.5t47 150.5t82.5 141t117 116.5t156 80t194.5 29.5q114 0 202.5 -38t142 -104.5t80.5 -150.5t27 -182q0 -89 -22 -179.5t-70.5 -178.5t-118 -156t-173.5 -110t-228 -42q-115 0 -203.5 38t-142 104t-80.5 150.5t-27 182.5zM195 449q0 -170 87 -273.5 t242 -103.5q88 0 163.5 34t128.5 90.5t91 129.5t56 152t18 157q0 169 -87.5 272t-242.5 103q-88 0 -164 -34t-128.5 -90.5t-90.5 -129.5t-55.5 -151t-17.5 -156zM545 1413h123l84 -225h-84z" />
<glyph unicode="&#xf3;" horiz-adv-x="1175" d="M55 446q0 73 16 148.5t47 150.5t82.5 141t117 116.5t156 80t194.5 29.5q114 0 202.5 -38t142 -104.5t80.5 -150.5t27 -182q0 -89 -22 -179.5t-70.5 -178.5t-118 -156t-173.5 -110t-228 -42q-115 0 -203.5 38t-142 104t-80.5 150.5t-27 182.5zM195 449q0 -170 87 -273.5 t242 -103.5q88 0 163.5 34t128.5 90.5t91 129.5t56 152t18 157q0 169 -87.5 272t-242.5 103q-88 0 -164 -34t-128.5 -90.5t-90.5 -129.5t-55.5 -151t-17.5 -156zM649 1188l166 225h123l-203 -225h-86z" />
<glyph unicode="&#xf4;" horiz-adv-x="1175" d="M55 446q0 73 16 148.5t47 150.5t82.5 141t117 116.5t156 80t194.5 29.5q114 0 202.5 -38t142 -104.5t80.5 -150.5t27 -182q0 -89 -22 -179.5t-70.5 -178.5t-118 -156t-173.5 -110t-228 -42q-115 0 -203.5 38t-142 104t-80.5 150.5t-27 182.5zM195 449q0 -170 87 -273.5 t242 -103.5q88 0 163.5 34t128.5 90.5t91 129.5t56 152t18 157q0 169 -87.5 272t-242.5 103q-88 0 -164 -34t-128.5 -90.5t-90.5 -129.5t-55.5 -151t-17.5 -156zM520 1188l178 225h95l94 -225h-101l-55 153l-110 -153h-101z" />
<glyph unicode="&#xf5;" horiz-adv-x="1175" d="M55 446q0 73 16 148.5t47 150.5t82.5 141t117 116.5t156 80t194.5 29.5q114 0 202.5 -38t142 -104.5t80.5 -150.5t27 -182q0 -89 -22 -179.5t-70.5 -178.5t-118 -156t-173.5 -110t-228 -42q-115 0 -203.5 38t-142 104t-80.5 150.5t-27 182.5zM195 449q0 -170 87 -273.5 t242 -103.5q88 0 163.5 34t128.5 90.5t91 129.5t56 152t18 157q0 169 -87.5 272t-242.5 103q-88 0 -164 -34t-128.5 -90.5t-90.5 -129.5t-55.5 -151t-17.5 -156zM510 1251q10 66 38 94.5t75 28.5q46 0 120 -26q68 -23 88 -23q33 0 41 41h64q-16 -123 -113 -123 q-45 0 -121 27q-65 22 -88 22q-33 0 -41 -41h-63z" />
<glyph unicode="&#xf6;" horiz-adv-x="1175" d="M55 446q0 73 16 148.5t47 150.5t82.5 141t117 116.5t156 80t194.5 29.5q114 0 202.5 -38t142 -104.5t80.5 -150.5t27 -182q0 -89 -22 -179.5t-70.5 -178.5t-118 -156t-173.5 -110t-228 -42q-115 0 -203.5 38t-142 104t-80.5 150.5t-27 182.5zM195 449q0 -170 87 -273.5 t242 -103.5q88 0 163.5 34t128.5 90.5t91 129.5t56 152t18 157q0 169 -87.5 272t-242.5 103q-88 0 -164 -34t-128.5 -90.5t-90.5 -129.5t-55.5 -151t-17.5 -156zM520 1280q0 33 27.5 59.5t60.5 26.5q28 0 46 -17.5t18 -45.5q0 -33 -28 -59.5t-62 -26.5q-27 0 -44.5 18 t-17.5 45zM768 1280q0 33 27.5 59.5t60.5 26.5q29 0 46.5 -17.5t17.5 -45.5q0 -33 -28.5 -59.5t-62.5 -26.5q-27 0 -44 18t-17 45z" />
<glyph unicode="&#xf7;" d="M139 608l17 88h843l-14 -88h-846zM422 307q0 45 33 78t77 33q35 0 55.5 -21.5t20.5 -54.5q0 -45 -32.5 -77t-75.5 -32q-35 0 -56.5 20.5t-21.5 53.5zM537 956q0 45 32.5 77t75.5 32q35 0 56.5 -20.5t21.5 -53.5q0 -45 -33 -77.5t-78 -32.5q-35 0 -55 21t-20 54z" />
<glyph unicode="&#xf8;" horiz-adv-x="1275" d="M-35 35l176 149q-59 109 -59 262q0 89 21.5 179t70 178t117.5 155.5t173 109.5t228 42q236 0 357 -154l186 158l53 -63l-196 -166q53 -106 53 -248q0 -89 -21.5 -179.5t-70.5 -178.5t-118 -156t-173.5 -110t-229.5 -42q-225 0 -346 144l-168 -144zM219 449q0 -94 29 -173 l698 592q-89 142 -270 142q-88 0 -163.5 -34t-128.5 -90.5t-91 -129.5t-56 -151t-18 -156zM287 201q92 -129 264 -129q109 0 198 51.5t143.5 134.5t84 180.5t29.5 196.5q0 79 -23 156z" />
<glyph unicode="&#xf9;" horiz-adv-x="1161" d="M96 256q0 81 27 221l108 606h127l-106 -591q-23 -132 -23 -203q0 -100 57 -158t177 -57q72 2 136.5 28.5t121.5 81t100 146.5t64 215l94 538h127l-188 -1083h-127l34 209l-80 -121q-74 -63 -151.5 -90t-171.5 -27q-158 0 -242 76t-84 209zM526 1413h121l86 -225h-86z" />
<glyph unicode="&#xfa;" horiz-adv-x="1161" d="M96 256q0 81 27 221l108 606h127l-106 -591q-23 -132 -23 -203q0 -100 57 -158t177 -57q72 2 136.5 28.5t121.5 81t100 146.5t64 215l94 538h127l-188 -1083h-127l34 209l-80 -121q-74 -63 -151.5 -90t-171.5 -27q-158 0 -242 76t-84 209zM629 1188l166 225h125 l-203 -225h-88z" />
<glyph unicode="&#xfb;" horiz-adv-x="1161" d="M96 256q0 81 27 221l108 606h127l-106 -591q-23 -132 -23 -203q0 -100 57 -158t177 -57q72 2 136.5 28.5t121.5 81t100 146.5t64 215l94 538h127l-188 -1083h-127l34 209l-80 -121q-74 -63 -151.5 -90t-171.5 -27q-158 0 -242 76t-84 209zM502 1188l176 225h94l94 -225 h-100l-55 153l-111 -153h-98z" />
<glyph unicode="&#xfc;" horiz-adv-x="1161" d="M96 256q0 81 27 221l108 606h127l-106 -591q-23 -132 -23 -203q0 -100 57 -158t177 -57q72 2 136.5 28.5t121.5 81t100 146.5t64 215l94 538h127l-188 -1083h-127l34 209l-80 -121q-74 -63 -151.5 -90t-171.5 -27q-158 0 -242 76t-84 209zM500 1280q0 33 27.5 59.5 t60.5 26.5q29 0 46 -17.5t17 -45.5q0 -33 -28 -59.5t-62 -26.5q-27 0 -44 18t-17 45zM748 1280q0 33 28 59.5t62 26.5q28 0 44.5 -17.5t16.5 -45.5q0 -33 -27.5 -59.5t-60.5 -26.5q-27 0 -45 18t-18 45z" />
<glyph unicode="&#xfd;" horiz-adv-x="995" d="M-72 -424l17 107q29 -7 63 -7q82 0 147.5 52.5t141.5 189.5l25 41l-234 1124h143l181 -987l528 987l145 -2l-608 -1081q-99 -176 -173 -268t-141 -127t-157 -35q-40 0 -78 6zM547 1188l166 225h123l-203 -225h-86z" />
<glyph unicode="&#xfe;" horiz-adv-x="1206" d="M-16 -401l340 1906h127l-111 -620l92 116q129 111 326 111q188 0 291.5 -123t103.5 -317q0 -103 -23.5 -202t-74 -190t-122.5 -159.5t-177 -109t-230 -40.5q-83 0 -153 28.5t-111 80.5l-45 119l-106 -600h-127zM268 485q-20 -115 1 -206.5t91.5 -149t182.5 -57.5 q113 0 205 51.5t149.5 136.5t88 190t30.5 216q0 156 -75.5 250t-217.5 94q-159 0 -278.5 -107t-161.5 -336z" />
<glyph unicode="&#xff;" horiz-adv-x="995" d="M-72 -424l17 107q29 -7 63 -7q82 0 147.5 52.5t141.5 189.5l25 41l-234 1124h143l181 -987l528 987l145 -2l-608 -1081q-99 -176 -173 -268t-141 -127t-157 -35q-40 0 -78 6zM418 1280q0 33 27.5 59.5t60.5 26.5q28 0 45.5 -17.5t17.5 -45.5q0 -33 -28 -59.5t-62 -26.5 q-27 0 -44 18t-17 45zM666 1280q0 33 27.5 59.5t60.5 26.5q29 0 46 -17.5t17 -45.5q0 -33 -28 -59.5t-62 -26.5q-27 0 -44 18t-17 45z" />
<glyph unicode="&#x152;" horiz-adv-x="2271" d="M125 567q0 96 20.5 195t61 198t106.5 185.5t150.5 153t200.5 105t249 38.5q165 0 264 -49t166 -166l33 -158l62 344h895l-19 -104h-768l-98 -549h717l-19 -107h-716l-97 -549h791l-21 -104h-915l57 334l-84 -154q-191 -209 -506 -209q-256 0 -393 157t-137 439zM264 571 q0 -234 113 -365.5t309 -131.5q235 0 404 168t223 465q13 77 14 149.5t-10.5 145t-42.5 132.5t-78 106.5t-121 72.5t-168 26q-127 0 -235.5 -48.5t-182 -127t-125.5 -180t-76 -206t-24 -206.5z" />
<glyph unicode="&#x153;" horiz-adv-x="2009" d="M51 426q0 85 21.5 175t71 183t121 165.5t182 118.5t243.5 46q165 0 269.5 -77.5t136.5 -225.5q86 150 211.5 226.5t273.5 76.5q185 0 281 -112t96 -297q0 -99 -29 -201h-819q-6 -53 -6 -98q0 -168 77 -251t201 -83q120 0 222 70.5t153 199.5h133q-48 -125 -134 -210 t-185.5 -123t-210.5 -38q-138 0 -236.5 75t-130.5 224q-172 -299 -504 -299q-213 0 -325.5 125.5t-112.5 329.5zM190 434q0 -168 86 -265t232 -97q103 0 190.5 46.5t146 124.5t94.5 174t46 199q8 112 -20 199.5t-102.5 143t-188.5 55.5q-98 0 -180.5 -38t-137.5 -98.5 t-93.5 -137.5t-55.5 -154.5t-17 -151.5zM1130 604h693q8 70 8 96q0 157 -73 235.5t-199 78.5q-146 0 -265 -107t-164 -303z" />
<glyph unicode="&#x178;" horiz-adv-x="1163" d="M197 1413h133l297 -739l547 739h151l-655 -862l-97 -551h-127l99 557zM600 1591q0 35 28 60.5t62 25.5q28 0 45 -17.5t17 -43.5q0 -33 -27.5 -59.5t-60.5 -26.5q-29 0 -46.5 17t-17.5 44zM834 1591q0 34 27.5 60t60.5 26q28 0 45.5 -17.5t17.5 -43.5q0 -33 -28 -59.5 t-62 -26.5q-27 0 -44 17t-17 44z" />
<glyph unicode="&#x2c6;" horiz-adv-x="614" d="M106 1188l177 225h94l94 -225h-100l-56 153l-110 -153h-99z" />
<glyph unicode="&#x2dc;" horiz-adv-x="614" d="M94 1251q10 66 38 94.5t75 28.5t121 -26q68 -23 88 -23q33 0 41 41h63q-16 -123 -112 -123q-44 0 -121 27q-65 22 -88 22q-33 0 -41 -41h-64z" />
<glyph unicode="&#x2000;" horiz-adv-x="883" />
<glyph unicode="&#x2001;" horiz-adv-x="1767" />
<glyph unicode="&#x2002;" horiz-adv-x="883" />
<glyph unicode="&#x2003;" horiz-adv-x="1767" />
<glyph unicode="&#x2004;" horiz-adv-x="589" />
<glyph unicode="&#x2005;" horiz-adv-x="441" />
<glyph unicode="&#x2006;" horiz-adv-x="294" />
<glyph unicode="&#x2007;" horiz-adv-x="294" />
<glyph unicode="&#x2008;" horiz-adv-x="220" />
<glyph unicode="&#x2009;" horiz-adv-x="353" />
<glyph unicode="&#x200a;" horiz-adv-x="98" />
<glyph unicode="&#x2010;" horiz-adv-x="561" d="M57 535l17 88h430l-17 -88h-430z" />
<glyph unicode="&#x2011;" horiz-adv-x="561" d="M57 535l17 88h430l-17 -88h-430z" />
<glyph unicode="&#x2012;" horiz-adv-x="561" d="M57 535l17 88h430l-17 -88h-430z" />
<glyph unicode="&#x2013;" horiz-adv-x="1024" d="M135 553l17 88h737l-17 -88h-737z" />
<glyph unicode="&#x2014;" horiz-adv-x="2048" d="M135 553l17 88h1761l-17 -88h-1761z" />
<glyph unicode="&#x2018;" horiz-adv-x="421" d="M193 979l4 18l233 451h119l-219 -469h-137z" />
<glyph unicode="&#x2019;" horiz-adv-x="421" d="M98 979l219 469h138l-4 -18l-234 -451h-119z" />
<glyph unicode="&#x201a;" horiz-adv-x="395" d="M-184 -244l204 391h140l-2 -20l-224 -371h-118z" />
<glyph unicode="&#x201c;" horiz-adv-x="708" d="M193 979l4 18l233 451h119l-219 -469h-137zM479 979l4 18l234 451h119l-220 -469h-137z" />
<glyph unicode="&#x201d;" horiz-adv-x="708" d="M98 979l219 469h138l-4 -18l-234 -451h-119zM385 979l219 469h137l-4 -18l-233 -451h-119z" />
<glyph unicode="&#x201e;" horiz-adv-x="681" d="M-184 -244l204 391h140l-2 -20l-224 -371h-118zM102 -244l205 391h139l-2 -20l-221 -371h-121z" />
<glyph unicode="&#x2022;" horiz-adv-x="600" d="M129 594q0 82 60 140.5t141 58.5q63 0 102 -39t39 -99q0 -81 -60.5 -139.5t-140.5 -58.5q-64 0 -102.5 38t-38.5 99z" />
<glyph unicode="&#x2026;" horiz-adv-x="1060" d="M-18 53q0 49 33.5 81t80.5 32q36 0 58 -23t22 -57q0 -50 -33 -82.5t-80 -32.5q-36 0 -58.5 23t-22.5 59zM315 53q0 49 33 81t80 32q37 0 59.5 -22.5t22.5 -57.5q0 -50 -33 -82.5t-80 -32.5q-38 0 -60 23t-22 59zM647 53q0 48 34 80.5t81 32.5q36 0 58 -23t22 -57 q0 -50 -33 -82.5t-80 -32.5q-36 0 -59 23t-23 59z" />
<glyph unicode="&#x202f;" horiz-adv-x="353" />
<glyph unicode="&#x2039;" horiz-adv-x="741" d="M221 508l340 340h129l-350 -350l213 -330h-111z" />
<glyph unicode="&#x203a;" horiz-adv-x="741" d="M39 168l350 350l-213 330h111l221 -340l-340 -340h-129z" />
<glyph unicode="&#x205f;" horiz-adv-x="441" />
<glyph unicode="&#x20ac;" d="M-10 547l35 88h135q6 70 18 139h-106l37 86h88q23 94 58 175t89.5 157.5t122.5 130.5t162.5 86.5t204.5 32.5q216 0 319 -127l-76 -80q-88 104 -258 104q-101 0 -184 -39t-141 -108.5t-97 -151.5t-63 -180h643l-39 -88h-623q-12 -66 -18 -137h596l-33 -88h-565l-2 -10 q0 -248 91.5 -355.5t270.5 -107.5q165 0 312 84l-21 -111q-148 -76 -317 -76q-87 0 -157 17t-130 56.5t-100.5 102.5t-63 158.5t-22.5 220.5v21h-166z" />
<glyph unicode="&#x2122;" horiz-adv-x="1087" d="M70 1284l12 68h399l-12 -68h-160l-61 -350h-82l61 350h-157zM459 934l73 416h119l49 -340l170 340h117l-74 -416h-79l61 323l-166 -317h-84l-53 315l-55 -321h-78z" />
<glyph unicode="&#x25fc;" horiz-adv-x="1085" d="M0 0v1085h1085v-1085h-1085z" />
</font>
</defs>
</svg>
