<?xml version="1.0" standalone="no"?>
<!DOCTYPE svg PUBLIC "-//W3C//DTD SVG 1.1//EN" "http://www.w3.org/Graphics/SVG/1.1/DTD/svg11.dtd" >
<svg xmlns="http://www.w3.org/2000/svg">
<metadata></metadata>
<defs>
<font id="aileronregular" horiz-adv-x="1187" >
<font-face units-per-em="2048" ascent="1577" descent="-471" />
<missing-glyph horiz-adv-x="442" />
<glyph unicode="&#xfb01;" horiz-adv-x="1069" d="M43 942v135h117v29q0 76 6 131q18 152 125 229.5t317 77.5q63 0 125 -10v-145q-200 17 -288.5 -20t-102.5 -136q-6 -43 -6 -111v-45h573v-1077h-176v942h-397v-942h-176v942h-117z" />
<glyph unicode="&#xfb02;" horiz-adv-x="1042" d="M43 942v135h96v29q0 76 6 131q17 150 118.5 228.5t283.5 78.5q191 0 309 -39v-1194q0 -67 2 -102q3 -53 32.5 -71t100.5 -9v-129q-52 -8 -125 -8q-85 0 -132.5 37t-51.5 133q-2 37 -2 143v1092q-62 12 -141 12q-99 0 -152.5 -48t-64.5 -128q-7 -51 -7 -111v-45h224v-135 h-224v-942h-176v942h-96z" />
<glyph horiz-adv-x="2048" />
<glyph horiz-adv-x="2048" />
<glyph unicode="&#xd;" horiz-adv-x="2048" />
<glyph unicode=" "  horiz-adv-x="442" />
<glyph unicode="&#x09;" horiz-adv-x="442" />
<glyph unicode="&#xa0;" horiz-adv-x="442" />
<glyph unicode="!" horiz-adv-x="495" d="M117 102q0 57 37 94t94 37t94 -37t37 -94t-37 -94t-94 -37t-94 37t-37 94zM143 1413h209l-24 -1044h-160z" />
<glyph unicode="&#x22;" horiz-adv-x="694" d="M176 1505h184l-20 -512h-143zM463 1505h184l-20 -512h-144z" />
<glyph unicode="#" d="M143 449v114h209l60 287h-207v115h231l96 448h119l-96 -448h186l97 448h118l-96 -448h184v-115h-208l-60 -287h207v-114h-231l-97 -449h-118l96 449h-187l-96 -449h-119l97 449h-185zM471 563h186l60 287h-187z" />
<glyph unicode="$" d="M109 381h188q14 -110 78 -179.5t172 -86.5v524q-192 53 -289.5 146.5t-97.5 261.5q0 169 106.5 271t280.5 120v159h119v-157q118 -10 205 -66.5t133 -140.5t59 -191h-189q-23 228 -208 256v-487q223 -71 317 -174.5t94 -265.5q0 -167 -115.5 -272.5t-295.5 -123.5v-159 h-119v157q-196 12 -313.5 121t-124.5 287zM348 1073q0 -100 47 -155.5t152 -88.5v469q-94 -15 -146.5 -72.5t-52.5 -152.5zM666 113q104 13 163.5 72t59.5 165q0 95 -51.5 161t-171.5 105v-503z" />
<glyph unicode="%" horiz-adv-x="1515" d="M84 1108q0 150 82 238t221 88t221 -88t82 -238q0 -149 -82.5 -237.5t-220.5 -88.5t-220.5 88.5t-82.5 237.5zM211 0l917 1413h179l-918 -1413h-178zM256 1108q0 -96 35.5 -149.5t95.5 -53.5t95.5 53.5t35.5 149.5q0 98 -35.5 150.5t-95.5 52.5t-95.5 -52.5t-35.5 -150.5z M825 297q0 150 82 238t221 88t221.5 -88t82.5 -238q0 -149 -83 -237.5t-221 -88.5t-220.5 88.5t-82.5 237.5zM997 297q0 -96 35.5 -149.5t95.5 -53.5t96 53.5t36 149.5q0 97 -36 150t-96 53t-95.5 -52.5t-35.5 -150.5z" />
<glyph unicode="&#x26;" horiz-adv-x="1339" d="M131 365q0 120 91 215t243 122q-121 37 -199 138t-78 217q0 169 135 277t365 108q129 0 246 -21v-141q-121 23 -252 23q-137 0 -217 -65.5t-80 -170.5q0 -139 73 -215t193 -82q37 -2 127 -2h123v250h176v-250h197v-143h-197v-623q-181 -31 -387 -31q-129 0 -227.5 20 t-175 64.5t-116.5 122.5t-40 187zM328 371q0 -133 88 -196.5t278 -63.5q117 0 207 10v504h-123q-84 0 -125 -4q-325 -28 -325 -250z" />
<glyph unicode="'" horiz-adv-x="360" d="M88 1505h184l-20 -512h-143z" />
<glyph unicode="(" horiz-adv-x="645" d="M205 717q0 241 66 473.5t182 406.5h118q-114 -193 -176.5 -421.5t-62.5 -458.5t62.5 -459.5t176.5 -421.5h-118q-116 174 -182 406.5t-66 474.5z" />
<glyph unicode=")" horiz-adv-x="645" d="M61 -164q114 193 177 422.5t63 458.5t-62.5 458t-177.5 422h119q116 -174 182 -406.5t66 -473.5q0 -242 -66 -474.5t-182 -406.5h-119z" />
<glyph unicode="*" horiz-adv-x="1146" d="M174 610l39 121l317 -125l-20 367h127l-21 -367l318 125l39 -121l-326 -84l232 -282l-103 -76l-203 313l-202 -313l-103 76l232 282z" />
<glyph unicode="+" d="M164 588v114h371v422h118v-422h371v-114h-371v-414h-118v414h-371z" />
<glyph unicode="," horiz-adv-x="471" d="M-63 -246l159 451h191v-21l-185 -430h-165z" />
<glyph unicode="-" horiz-adv-x="561" d="M66 522v115h430v-115h-430z" />
<glyph unicode="." horiz-adv-x="471" d="M76 102q0 57 37 94t94 37t94 -37t37 -94t-37 -94t-94 -37t-94 37t-37 94z" />
<glyph unicode="/" horiz-adv-x="620" d="M-10 -61l514 1536h127l-514 -1536h-127z" />
<glyph unicode="0" d="M84 707q0 735 510 735t510 -735q0 -736 -510 -736t-510 736zM281 707q0 -596 313 -596t313 596t-313 596t-313 -596z" />
<glyph unicode="1" d="M287 901v197l432 315h112v-1413h-176v1169z" />
<glyph unicode="2" d="M102 0v121l539 502q133 124 189.5 216t56.5 193q0 116 -65.5 193.5t-186.5 77.5q-134 0 -215 -82t-90 -230h-189q6 194 144 322.5t356 128.5q107 0 192.5 -32t139 -86.5t82 -125.5t28.5 -151q0 -78 -17.5 -141t-63.5 -130t-104 -128t-159 -154l-377 -351h709v-143h-969z " />
<glyph unicode="3" d="M109 397h188q24 -135 109 -210.5t200 -75.5q131 0 212 74.5t81 197.5q0 128 -81 197t-249 69h-34v144h34q133 0 222.5 71t89.5 199q0 108 -64 174t-180 66q-110 0 -188.5 -72t-96.5 -205h-188q17 192 148 304t333 112q194 0 313 -99.5t119 -259.5q0 -120 -71.5 -207 t-188.5 -120q132 -39 205.5 -133t73.5 -230q0 -128 -67.5 -225.5t-179.5 -147t-249 -49.5q-198 0 -335.5 112t-155.5 314z" />
<glyph unicode="4" d="M68 315v109l690 989h186v-954h178v-144h-178v-315h-176v315h-700zM274 459h494v723q-56 -97 -117 -185z" />
<glyph unicode="5" d="M104 385h189q13 -128 96.5 -201t214.5 -73q128 0 213.5 90t85.5 245q0 160 -80.5 253.5t-220.5 93.5q-101 0 -172.5 -47t-122.5 -154h-168l84 821h817v-143h-669l-56 -492l91 99q96 55 215 55t211.5 -36t150 -100.5t87.5 -149.5t30 -187q0 -120 -42.5 -215.5 t-113.5 -153.5t-158.5 -88.5t-183.5 -30.5q-216 0 -344.5 105t-153.5 309z" />
<glyph unicode="6" d="M88 639q0 172 28 309.5t77 228.5t117.5 151.5t146.5 87t168 26.5q380 0 448 -361h-188q-50 222 -252 222q-63 0 -113.5 -17.5t-94 -58.5t-73.5 -105.5t-48.5 -161.5t-22.5 -223l79 127q109 90 258 90q217 0 343 -135t126 -350q0 -223 -140.5 -360.5t-358.5 -137.5 q-500 0 -500 668zM293 459q0 -150 81.5 -249t213.5 -99q133 0 218 95.5t85 248.5q0 76 -17.5 139.5t-53 114t-95 78.5t-137.5 28q-127 0 -211 -93t-84 -263z" />
<glyph unicode="7" d="M102 1270v143h1000v-123l-705 -1290h-188l696 1270h-803z" />
<glyph unicode="8" d="M90 381q0 125 73.5 220.5t188.5 131.5q-98 39 -157.5 124t-59.5 198q0 174 131.5 280.5t339.5 106.5t339.5 -106.5t131.5 -280.5q0 -113 -64.5 -198t-166.5 -122q112 -37 182 -133t70 -221q0 -90 -29 -161.5t-77 -117.5t-114 -76.5t-136 -43.5t-148 -13t-148 13 t-136 43.5t-114 76.5t-77 117.5t-29 161.5zM287 377q0 -121 85.5 -194.5t225.5 -73.5q139 0 221 73t82 195q0 119 -75.5 196.5t-229.5 77.5q-155 0 -232 -78t-77 -196zM332 1049q0 -112 72 -185t200 -73t202.5 73.5t74.5 184.5q0 107 -73.5 180.5t-201.5 73.5t-201 -73.5 t-73 -180.5z" />
<glyph unicode="9" d="M88 944q0 223 141 360.5t359 137.5q499 0 499 -668q0 -172 -28 -309.5t-76.5 -228.5t-117.5 -151.5t-146.5 -87t-167.5 -26.5q-381 0 -449 361h189q49 -221 252 -221q79 0 139 28.5t107 93t74 175.5t32 268l-80 -127q-109 -90 -258 -90q-217 0 -343 135t-126 350z M285 958q0 -76 17.5 -139.5t53 -114t95 -78.5t137.5 -28q127 0 211 93t84 263q0 150 -81.5 249.5t-213.5 99.5q-133 0 -218 -96t-85 -249z" />
<glyph unicode=":" horiz-adv-x="471" d="M76 102q0 57 37 94t94 37t94 -37t37 -94t-37 -94t-94 -37t-94 37t-37 94zM76 983q0 57 37 94t94 37t94 -37t37 -94t-37 -94t-94 -37t-94 37t-37 94z" />
<glyph unicode=";" horiz-adv-x="471" d="M-63 -246l159 471h193v-24l-185 -447h-167zM76 983q0 57 37 94t94 37t94 -37t37 -94t-37 -94t-94 -37t-94 37t-37 94z" />
<glyph unicode="&#x3c;" d="M211 473v139l821 412v-139l-700 -340l700 -340v-144z" />
<glyph unicode="=" d="M164 383v115h860v-115h-860zM164 793v114h860v-114h-860z" />
<glyph unicode="&#x3e;" d="M139 61v140l701 340l-701 340v143l822 -412v-139z" />
<glyph unicode="?" horiz-adv-x="1021" d="M72 1012q6 196 132 313t328 117q200 0 313 -105.5t113 -269.5q0 -106 -52.5 -207t-162.5 -211q-93 -93 -124.5 -148.5t-36.5 -131.5h-176q9 91 43 160t120 167q112 128 152.5 204.5t40.5 166.5q0 107 -63.5 171.5t-172.5 64.5q-117 0 -189 -75.5t-81 -215.5h-184z M362 102q0 57 37.5 94t94.5 37t94 -37t37 -94t-37 -94t-94 -37t-94.5 37t-37.5 94z" />
<glyph unicode="@" horiz-adv-x="1744" d="M111 498q0 158 48 297t130.5 241t190.5 176t231.5 111t249.5 37q291 0 474 -188.5t183 -493.5q0 -133 -37.5 -237.5t-99.5 -165t-134 -91t-149 -30.5q-84 0 -139 36t-66 111l-43 -84q-96 -80 -205 -80q-53 0 -101 17t-91.5 53.5t-69.5 103.5t-26 156q0 134 55.5 253 t158 194t228.5 75q123 0 180 -63l19 -99l35 125h165l-129 -540q-8 -36 -8 -66q0 -34 16 -54t62 -20q101 0 176.5 104.5t75.5 297.5q0 110 -28 203t-77.5 159.5t-117 113t-147 69t-167.5 22.5q-104 0 -206.5 -31t-194.5 -94t-162 -150t-111.5 -208t-41.5 -258 q0 -145 45.5 -259.5t125.5 -187t183.5 -110t224.5 -37.5q131 0 268.5 42t245.5 122l49 -101q-268 -182 -569 -182q-110 0 -212 27.5t-191 85.5t-155 140.5t-104 200t-38 257.5zM649 479q0 -108 38 -157.5t101 -49.5q81 0 145 72t87 170l18 80q31 138 -7 199t-120 61 q-80 0 -141 -55t-91 -139.5t-30 -180.5z" />
<glyph unicode="A" horiz-adv-x="1308" d="M59 0l508 1413h238l487 -1413h-190l-168 500h-520l-166 -500h-189zM463 643h424l-205 631z" />
<glyph unicode="B" horiz-adv-x="1284" d="M205 0v1413h452q117 0 185 -8q170 -24 259 -109.5t89 -234.5q0 -244 -256 -324q140 -38 205 -123.5t65 -234.5q0 -83 -30 -150t-82.5 -110.5t-115.5 -70.5t-136 -38q-70 -10 -181 -10h-454zM381 143h305q44 0 98 4q107 9 169.5 69t62.5 171q0 114 -61.5 177t-168.5 77 q-63 8 -112 8h-293v-506zM381 793h289q57 0 112 8q107 17 163 78.5t56 156.5q0 101 -59 160t-158 70q-37 4 -112 4h-291v-477z" />
<glyph unicode="C" horiz-adv-x="1394" d="M96 700q0 213 83 382t236.5 264.5t350.5 95.5q241 0 384.5 -119t190.5 -319h-188q-35 135 -130 217t-261 82q-213 0 -341 -166.5t-128 -427.5q0 -264 124 -431t331 -167q161 0 261 82.5t130 212.5h188q-48 -200 -202 -317.5t-388 -117.5q-151 0 -273.5 55.5t-202 153.5 t-122.5 231t-43 289z" />
<glyph unicode="D" horiz-adv-x="1452" d="M205 0v1413h430q108 0 180 -8q257 -32 408 -204.5t151 -477.5q0 -304 -158 -493.5t-411 -221.5q-72 -8 -180 -8h-420zM381 143h233q110 0 172 11q184 30 290 177t106 392q0 232 -101 369.5t-284 167.5q-56 10 -172 10h-244v-1127z" />
<glyph unicode="E" horiz-adv-x="1202" d="M205 0v1413h919v-143h-743v-492h682v-143h-682v-492h764v-143h-940z" />
<glyph unicode="F" horiz-adv-x="1161" d="M205 0v1413h919v-143h-743v-492h682v-143h-682v-635h-176z" />
<glyph unicode="G" horiz-adv-x="1454" d="M96 700q0 213 83 382t236.5 264.5t350.5 95.5q241 0 384.5 -119t190.5 -319h-188q-35 135 -130 217t-261 82q-213 0 -341 -166.5t-128 -427.5q0 -264 124 -431t331 -167q179 0 293 119.5t114 308.5h-338v143h514v-682h-155v240l-64 -136q-118 -133 -375 -133 q-151 0 -273.5 55.5t-202 153.5t-122.5 231t-43 289z" />
<glyph unicode="H" horiz-adv-x="1495" d="M205 0v1413h176v-647h778v647h176v-1413h-176v618h-778v-618h-176z" />
<glyph unicode="I" horiz-adv-x="540" d="M205 0v1413h176v-1413h-176z" />
<glyph unicode="J" horiz-adv-x="1114" d="M100 397h189q7 -133 81.5 -209.5t192.5 -76.5q123 0 186 61t72 186q2 41 2 166v889h176v-903q0 -100 -4 -170q-9 -169 -122 -269t-320 -100q-198 0 -314.5 108t-138.5 318z" />
<glyph unicode="K" horiz-adv-x="1247" d="M205 0v1413h176v-751l698 751h207l-641 -690l604 -723h-248l-485 604l-135 -145v-459h-176z" />
<glyph unicode="L" horiz-adv-x="1177" d="M205 0v1413h176v-1270h764v-143h-940z" />
<glyph unicode="M" horiz-adv-x="1773" d="M205 0v1413h301l412 -1253l409 1253h287v-1413h-176v727q0 372 4 526q-62 -205 -172 -524l-250 -729h-221l-254 733q-120 352 -168 516q4 -154 4 -522v-727h-176z" />
<glyph unicode="N" horiz-adv-x="1470" d="M205 0v1413h270l666 -1241q-6 249 -6 535v706h172v-1413h-267l-665 1241q6 -249 6 -534v-707h-176z" />
<glyph unicode="O" horiz-adv-x="1509" d="M96 707q0 217 76.5 382t228.5 259t363 94t363 -94t228.5 -259t76.5 -382t-76.5 -381.5t-229 -259.5t-362.5 -95t-362.5 95t-229 259.5t-76.5 381.5zM293 707q0 -277 125 -436.5t346 -159.5t346 159.5t125 436.5q0 278 -124.5 437t-346.5 159t-346.5 -159t-124.5 -437z " />
<glyph unicode="P" horiz-adv-x="1224" d="M205 0v1413h454q122 0 185 -8q159 -21 254.5 -128t95.5 -282t-95.5 -281.5t-254.5 -127.5q-63 -8 -185 -8h-278v-578h-176zM381 725h278q109 0 158 10q84 19 136.5 82t52.5 178t-52.5 178t-136.5 82q-54 11 -158 11h-278v-541z" />
<glyph unicode="Q" horiz-adv-x="1501" d="M96 707q0 217 76.5 382t228.5 259t363 94t363 -94t228.5 -259t76.5 -382q0 -179 -66 -323.5t-192 -236.5q125 -19 262 -133l-101 -120q-98 66 -157.5 88t-118.5 22q-65 0 -150 -18q-67 -15 -145 -15q-210 0 -362.5 95t-229 259.5t-76.5 381.5zM293 707q0 -277 125 -436.5 t346 -159.5t346 159.5t125 436.5q0 278 -124.5 437t-346.5 159t-346.5 -159t-124.5 -437z" />
<glyph unicode="R" horiz-adv-x="1292" d="M205 0v1413h463q121 0 184 -8q163 -21 262.5 -120.5t99.5 -270.5q0 -131 -74.5 -220t-185.5 -124q161 -67 181 -299q13 -151 29.5 -234t49.5 -137h-194q-37 116 -62 354q-12 111 -60 164t-150 60q-33 2 -101 2h-266v-580h-176zM381 723h270q98 0 137 4q103 9 170.5 79.5 t67.5 186.5t-58 185t-159 84q-52 8 -141 8h-287v-547z" />
<glyph unicode="S" horiz-adv-x="1198" d="M106 401h189q31 -139 123.5 -214.5t230.5 -75.5q127 0 210 61t83 172q0 113 -80 179.5t-266 109.5q-203 46 -313.5 140t-110.5 259q0 191 134 300.5t337 109.5q211 0 331.5 -115t141.5 -305h-188q-12 134 -89 207.5t-210 73.5q-117 0 -193 -61.5t-76 -168.5 q0 -114 70 -176.5t234 -99.5q236 -55 351 -161t115 -276q0 -121 -65 -210t-174 -134t-246 -45q-233 0 -374.5 113t-164.5 317z" />
<glyph unicode="T" horiz-adv-x="1253" d="M70 1270v143h1183v-143h-503v-1270h-177v1270h-503z" />
<glyph unicode="U" horiz-adv-x="1396" d="M193 522v891h176v-874q0 -88 4 -125q12 -138 102 -220.5t248 -82.5t248 82.5t102 220.5q4 37 4 125v874h176v-891q0 -86 -4 -127q-8 -91 -43 -166.5t-97.5 -134t-161 -91t-224.5 -32.5t-224.5 32.5t-161 91t-97.5 134t-43 166.5q-4 41 -4 127z" />
<glyph unicode="V" horiz-adv-x="1273" d="M66 1413h190l420 -1280l434 1280h188l-507 -1413h-238z" />
<glyph unicode="W" horiz-adv-x="1949" d="M53 1413h201l297 -1255l328 1235h237l320 -1237l313 1257h186l-393 -1413h-231l-320 1219l-332 -1219h-233z" />
<glyph unicode="X" horiz-adv-x="1280" d="M51 0l504 713l-467 700h201l375 -577l389 577h202l-491 -694l512 -719h-207l-414 598l-401 -598h-203z" />
<glyph unicode="Y" horiz-adv-x="1189" d="M39 1413h203l393 -686l381 686h198l-499 -856v-557h-176v557z" />
<glyph unicode="Z" horiz-adv-x="1210" d="M94 0v135l854 1135h-796v143h1001v-141l-850 -1129h862v-143h-1071z" />
<glyph unicode="[" horiz-adv-x="628" d="M201 -164v1761h334v-114h-216v-1532h216v-115h-334z" />
<glyph unicode="\" horiz-adv-x="620" d="M-10 1475h127l514 -1536h-127z" />
<glyph unicode="]" horiz-adv-x="604" d="M70 -49h215v1532h-215v114h333v-1761h-333v115z" />
<glyph unicode="^" d="M164 440l360 822h140l360 -822h-139l-289 707l-289 -707h-143z" />
<glyph unicode="_" horiz-adv-x="1024" d="M102 -61h820v-115h-820v115z" />
<glyph unicode="`" horiz-adv-x="614" d="M84 1413h164l125 -225h-115z" />
<glyph unicode="a" horiz-adv-x="1087" d="M74 281q0 187 147.5 279.5t462.5 92.5h70v29q0 90 -4 131q-13 166 -211 166q-216 0 -234 -229h-184q12 172 124 268t294 96q187 0 279 -74t106 -213q6 -64 6 -143v-408q0 -125 20 -276h-176l-18 156l-60 -117q-99 -68 -272 -68q-153 0 -251.5 82t-98.5 228zM266 295 q0 -96 57 -142.5t160 -46.5q125 0 198 80t73 226v110q-57 4 -108 4q-156 0 -252 -41q-128 -55 -128 -190z" />
<glyph unicode="b" horiz-adv-x="1251" d="M152 0v1505h176v-594l82 117q46 38 124.5 62t161.5 24q155 0 268 -73t169.5 -197.5t56.5 -284.5q0 -146 -43 -260.5t-117.5 -184.5t-168.5 -106.5t-202 -36.5q-71 0 -145.5 19.5t-114.5 52.5l-71 107v-150h-176zM328 494q0 -101 29.5 -178.5t78 -121.5t105.5 -66t118 -22 q149 0 243.5 113t94.5 320q0 125 -35.5 223t-111 157.5t-180.5 59.5q-70 0 -129.5 -23.5t-108.5 -72t-76.5 -133t-27.5 -197.5v-59z" />
<glyph unicode="c" horiz-adv-x="1083" d="M61 541q0 134 41.5 244t112 181t162 109.5t194.5 38.5q192 0 313 -106t146 -287h-184q-58 258 -279 258q-136 0 -224.5 -108.5t-88.5 -317.5q0 -224 85 -335.5t216 -111.5q108 0 180.5 61t100.5 179h184q-39 -185 -164 -280t-311 -95q-105 0 -191.5 34t-153 101.5 t-103 178.5t-36.5 256z" />
<glyph unicode="d" horiz-adv-x="1259" d="M61 526q0 146 43 260.5t117.5 184.5t168.5 106.5t202 36.5q71 0 145.5 -19.5t114.5 -52.5l72 -106v569h176v-1505h-176v174l-82 -117q-46 -38 -125 -62t-162 -24q-155 0 -268 73t-169.5 197.5t-56.5 284.5zM254 547q0 -125 36 -223.5t111.5 -158t180.5 -59.5 q70 0 129.5 23.5t108.5 72t76.5 133t27.5 197.5v60q0 101 -29.5 178.5t-78.5 121.5t-106 65.5t-118 21.5q-149 0 -243.5 -113t-94.5 -319z" />
<glyph unicode="e" horiz-adv-x="1124" d="M61 539q0 260 145.5 417.5t371.5 157.5q219 0 341.5 -148.5t122.5 -392.5q0 -45 -4 -84h-786q11 -202 95.5 -292.5t215.5 -90.5q108 0 185.5 64.5t95.5 179.5h184q-16 -95 -60.5 -169t-109 -119t-141 -68t-162.5 -23q-107 0 -196.5 35.5t-156.5 104.5t-104 178.5 t-37 249.5zM254 625h610q-14 172 -87 263t-204 91q-133 0 -218.5 -92t-100.5 -262z" />
<glyph unicode="f" horiz-adv-x="593" d="M43 942v135h117v90q0 75 6 131q13 118 89 182t198 64q63 0 125 -10v-145q-44 8 -81 8q-47 0 -83 -13q-62 -25 -72 -90q-6 -44 -6 -110v-107h223v-135h-223v-942h-176v942h-117z" />
<glyph unicode="g" horiz-adv-x="1259" d="M61 526q0 146 43 260.5t117.5 184.5t168.5 106.5t202 36.5q71 0 145.5 -19.5t114.5 -52.5l72 -106v149h176v-819q0 -152 -2 -211q-7 -235 -141 -360t-365 -125q-414 0 -498 358h185q70 -223 323 -223q146 0 230 87.5t90 244.5q2 51 2 119v18l-82 -117q-46 -38 -125 -62 t-162 -24q-155 0 -268 73t-169.5 197.5t-56.5 284.5zM254 547q0 -125 36 -223.5t111.5 -158t180.5 -59.5q70 0 129.5 23.5t108.5 72t76.5 133t27.5 197.5v60q0 101 -29.5 178.5t-78.5 121.5t-106 65.5t-118 21.5q-149 0 -243.5 -113t-94.5 -319z" />
<glyph unicode="h" horiz-adv-x="1214" d="M152 0v1516h176v-617l67 125q66 52 130.5 71t152.5 19q175 0 275 -85.5t112 -231.5q4 -55 4 -187v-610h-176v598q0 101 -4 156q-9 104 -69 164q-58 58 -168 57h-11q-53 -1 -98 -17.5t-85.5 -53t-68.5 -92.5t-44.5 -141.5t-16.5 -193.5v-477h-176z" />
<glyph unicode="i" horiz-adv-x="487" d="M127 1329q0 47 33 80t80 33t79.5 -33t32.5 -80t-32.5 -79.5t-79.5 -32.5t-80 32.5t-33 79.5zM152 0v1085h176v-1085h-176z" />
<glyph unicode="j" horiz-adv-x="477" d="M-27 -283q19 -2 36 -2q55 0 84 17q38 23 44 75q4 29 4 91v1187h176v-1179q0 -76 -6 -131q-11 -102 -71.5 -153.5t-182.5 -51.5q-57 0 -84 4v143zM117 1329q0 47 32.5 80t79.5 33t80 -33t33 -80t-33 -79.5t-80 -32.5t-79.5 32.5t-32.5 79.5z" />
<glyph unicode="k" horiz-adv-x="1069" d="M152 0v1505h176v-966l506 546h225l-506 -512l512 -573h-240l-395 459l-102 -113v-346h-176z" />
<glyph unicode="l" horiz-adv-x="505" d="M143 305v1200h176v-1194q0 -49 3 -102q2 -53 32 -71q20 -12 58 -12q19 0 43 3v-129q-52 -8 -125 -8q-85 0 -133 37t-52 133q-2 37 -2 143z" />
<glyph unicode="m" horiz-adv-x="1751" d="M152 0v1085h176v-157l69 123q77 63 230 63q120 0 200.5 -55t112.5 -148l96 140q77 63 230 63q140 0 224.5 -73t104.5 -191q11 -76 11 -186v-664h-176v582q0 128 -9 211q-24 182 -217 182q-237 0 -237 -438v-537h-176v582q0 128 -9 211q-24 182 -217 182q-237 0 -237 -438 v-537h-176z" />
<glyph unicode="n" horiz-adv-x="1214" d="M152 0v1085h176v-186l67 125q66 52 130.5 71t152.5 19q175 0 275 -85.5t112 -231.5q4 -55 4 -187v-610h-176v598q0 101 -4 156q-8 102 -68 161.5t-180 59.5q-67 0 -121.5 -26.5t-98.5 -82.5t-68.5 -155t-24.5 -234v-477h-176z" />
<glyph unicode="o" horiz-adv-x="1200" d="M61 543q0 118 33 219.5t97.5 181t169.5 125t239 45.5t239 -45.5t169.5 -125t97.5 -181t33 -219.5q0 -117 -33 -218.5t-97.5 -181.5t-169.5 -126t-239 -46t-239 46t-169.5 126t-97.5 181.5t-33 218.5zM254 543q0 -195 92.5 -316t253.5 -121t253.5 121t92.5 316 q0 196 -92.5 316t-253.5 120t-253.5 -120t-92.5 -316z" />
<glyph unicode="p" horiz-adv-x="1251" d="M152 -401v1486h176v-174l82 117q46 38 124.5 62t161.5 24q155 0 268 -73t169.5 -197.5t56.5 -284.5q0 -146 -43 -260.5t-117.5 -184.5t-168.5 -106.5t-202 -36.5q-71 0 -145.5 19.5t-114.5 52.5l-71 107v-551h-176zM328 494q0 -101 29.5 -178.5t78 -121.5t105.5 -66 t118 -22q149 0 243.5 113t94.5 320q0 125 -35.5 223t-111 157.5t-180.5 59.5q-70 0 -129.5 -23.5t-108.5 -72t-76.5 -133t-27.5 -197.5v-59z" />
<glyph unicode="q" horiz-adv-x="1259" d="M61 526q0 146 43 260.5t117.5 184.5t168.5 106.5t202 36.5q71 0 145.5 -19.5t114.5 -52.5l72 -106v149h176v-1486h-176v575l-82 -117q-46 -38 -125 -62t-162 -24q-155 0 -268 73t-169.5 197.5t-56.5 284.5zM254 547q0 -125 36 -223.5t111.5 -158t180.5 -59.5 q70 0 129.5 23.5t108.5 72t76.5 133t27.5 197.5v60q0 101 -29.5 178.5t-78.5 121.5t-106 65.5t-118 21.5q-149 0 -243.5 -113t-94.5 -319z" />
<glyph unicode="r" horiz-adv-x="675" d="M152 0v1085h176v-170l98 146q71 49 152 49q45 0 73 -14v-133q-14 1 -27 1q-127 0 -207 -80q-89 -88 -89 -266v-618h-176z" />
<glyph unicode="s" horiz-adv-x="940" d="M49 319h184q39 -213 254 -213q92 0 151.5 41.5t59.5 116.5q0 77 -59 124.5t-197 84.5q-80 22 -138 47t-109 63t-77 91.5t-26 122.5q0 147 102.5 232t272.5 85q177 0 279 -91.5t120 -246.5h-184q-19 97 -77 150t-152 53q-89 0 -135 -44t-46 -118q0 -76 57.5 -116.5 t180.5 -73.5q192 -51 280.5 -132t88.5 -216q0 -148 -112.5 -228t-291.5 -80q-176 0 -289 85.5t-137 262.5z" />
<glyph unicode="t" horiz-adv-x="641" d="M41 942v135h145v252h176v-252h203v-135h-203v-625q0 -41 3 -84q6 -77 45 -99q25 -15 79 -15q28 0 64 4v-129q-64 -10 -150 -10q-103 0 -155.5 45t-59.5 145q-2 29 -2 135v633h-145z" />
<glyph unicode="u" horiz-adv-x="1212" d="M135 434v651h176v-618q0 -77 8 -150q12 -94 78 -150t174 -56q66 0 119.5 26t96.5 82.5t66.5 155t23.5 233.5v477h176v-1085h-176v184l-68 -127q-66 -49 -130.5 -67.5t-152.5 -18.5q-161 0 -261 79t-120 198q-10 69 -10 186z" />
<glyph unicode="v" horiz-adv-x="1052" d="M2 1085h195l331 -956l326 956h186l-411 -1085h-215z" />
<glyph unicode="w" horiz-adv-x="1607" d="M2 1085h203l252 -917l237 917h219l242 -911l252 911h188l-346 -1085h-209l-241 913l-242 -913h-209z" />
<glyph unicode="x" horiz-adv-x="987" d="M-12 0l389 549l-375 536h209l272 -419l273 419h202l-380 -532l385 -553h-205l-285 436l-283 -436h-202z" />
<glyph unicode="y" horiz-adv-x="1050" d="M2 1085h199l323 -954l322 954h192l-446 -1177q-67 -173 -158.5 -255.5t-222.5 -82.5q-63 0 -90 4v143q27 -2 63 -2q84 0 140 43.5t96 147.5l14 39z" />
<glyph unicode="z" horiz-adv-x="946" d="M41 0v135l631 803h-586v139h791v-141l-627 -797h637v-139h-846z" />
<glyph unicode="{" horiz-adv-x="620" d="M131 659v115q89 9 128.5 48.5t39.5 109.5q0 63 -23 225q-24 174 -24 223q0 120 69 168.5t209 48.5h23v-114h-25q-87 0 -122 -25.5t-35 -75.5q0 -44 22 -204q27 -193 27 -252q0 -89 -46.5 -142.5t-131.5 -64.5q83 -11 130.5 -66.5t47.5 -144.5q0 -59 -27 -252 q-22 -160 -22 -205q0 -50 35 -75t122 -25h25v-115h-23q-140 0 -209 48.5t-69 168.5q0 49 24 223q23 162 23 226q0 70 -39.5 109t-128.5 48z" />
<glyph unicode="|" horiz-adv-x="512" d="M197 -410v2048h118v-2048h-118z" />
<glyph unicode="}" horiz-adv-x="620" d="M68 -49h24q87 0 122.5 25t35.5 75q0 38 -23 205q-26 186 -26 252q0 89 46.5 142.5t131.5 64.5q-83 11 -130.5 66.5t-47.5 144.5q0 66 26 252q23 167 23 204q0 50 -35.5 75.5t-122.5 25.5h-24v114h22q140 0 209.5 -48.5t69.5 -168.5q0 -42 -25 -223q-22 -155 -22 -225 t39 -109.5t128 -48.5v-115q-89 -9 -128 -48t-39 -109q0 -71 22 -226q25 -181 25 -223q0 -120 -69.5 -168.5t-209.5 -48.5h-22v115z" />
<glyph unicode="~" d="M158 457q0 272 225 272q55 0 101 -17.5t137 -66.5q47 -25 73 -38t59 -23.5t60 -10.5q56 0 78 39.5t22 116.5h115q0 -272 -225 -272q-55 0 -101 17.5t-137 66.5q-68 37 -110.5 54t-81.5 17q-56 0 -78.5 -39t-22.5 -116h-114z" />
<glyph unicode="&#xa1;" horiz-adv-x="495" d="M117 983q0 57 37 94t94 37t94 -37t37 -94t-37 -94t-94 -37t-94 37t-37 94zM143 -328l25 1045h160l24 -1045h-209z" />
<glyph unicode="&#xa2;" horiz-adv-x="1146" d="M100 541q0 120 34.5 222t94 172t138 114.5t168.5 58.5v162h118v-158q173 -10 282.5 -115t133.5 -276h-184q-52 230 -232 254v-864q174 31 221 235h185q-35 -167 -141 -261.5t-265 -109.5v-159h-118v157q-198 16 -316.5 158t-118.5 410zM293 553q0 -197 67 -307t175 -133 v858q-109 -26 -175.5 -132.5t-66.5 -285.5z" />
<glyph unicode="&#xa3;" d="M139 0v127q117 29 170 106t53 177q0 118 -55 239h-149v115h94q-64 144 -64 256q0 186 126.5 304t312.5 118q198 0 307.5 -110.5t122.5 -291.5h-189q-19 134 -78.5 198.5t-166.5 64.5q-115 0 -176.5 -74t-61.5 -174q0 -79 15.5 -135t60.5 -156h442v-115h-395 q41 -105 41 -209q0 -101 -37.5 -168.5t-118.5 -128.5h668v-143h-922z" />
<glyph unicode="&#xa4;" d="M172 281l123 120q-70 92 -70 215q0 119 70 218l-123 122l84 84l123 -122q95 67 215 67q123 0 215 -70l125 125l84 -84l-125 -125q70 -92 70 -215q0 -119 -68 -215l123 -122l-84 -84l-123 122q-98 -69 -217 -69q-125 0 -215 69l-123 -120zM352 616q0 -108 69.5 -178.5 t172.5 -70.5t172.5 70.5t69.5 178.5t-69.5 179t-172.5 71t-172.5 -71t-69.5 -179z" />
<glyph unicode="&#xa5;" d="M47 1413h217l338 -678l332 678h207l-377 -682h250v-115h-314l-18 -32v-99h332v-114h-332v-371h-176v371h-332v114h332v99l-19 32h-313v115h250z" />
<glyph unicode="&#xa6;" horiz-adv-x="512" d="M197 -328v697h118v-697h-118zM197 717v696h118v-696h-118z" />
<glyph unicode="&#xa7;" horiz-adv-x="1146" d="M68 602q0 113 57 191.5t156 115.5q-82 88 -82 209q0 150 103 237t265 87q178 0 280 -90.5t120 -249.5h-185q-19 97 -74.5 151t-140.5 54q-79 0 -129.5 -45t-50.5 -125q0 -86 67 -145t210 -99q223 -62 323 -152.5t100 -236.5q0 -97 -55 -176t-147 -121q84 -94 84 -234 q0 -106 -58.5 -182.5t-148.5 -111.5t-199 -35q-180 0 -294.5 89t-135.5 267h184q55 -221 258 -221q91 0 148 47t57 133q0 93 -67 154.5t-240 103.5q-184 45 -294.5 142.5t-110.5 242.5zM256 610q0 -82 76.5 -144t208.5 -93q112 -26 204 -68q70 15 112 65.5t42 112.5 q0 91 -69.5 147t-233.5 107q-98 30 -174 70q-75 -6 -120.5 -55.5t-45.5 -141.5z" />
<glyph unicode="&#xa8;" horiz-adv-x="614" d="M63 1288q0 38 28.5 66t66.5 28t66 -28t28 -66t-28 -66t-66 -28t-66.5 28t-28.5 66zM362 1288q0 38 28.5 66t66.5 28t66 -28t28 -66t-28 -66t-66 -28t-66.5 28t-28.5 66z" />
<glyph unicode="&#xa9;" horiz-adv-x="1716" d="M74 727q0 166 61 314t165.5 254t250 167.5t307.5 61.5t307.5 -61.5t250 -167.5t165.5 -254t61 -314t-61 -314t-165.5 -254t-250 -167.5t-307.5 -61.5t-307.5 61.5t-250 167.5t-165.5 254t-61 314zM201 727q0 -190 86.5 -345.5t237 -244t333.5 -88.5q137 0 259 52 t209.5 142t138.5 216t51 268q0 141 -51 267t-138.5 216t-209.5 142.5t-259 52.5q-183 0 -333.5 -89t-237 -244.5t-86.5 -344.5zM428 723q0 219 121 348t321 129q163 0 269.5 -90t136.5 -240h-189q-16 87 -69 139t-148 52q-118 0 -181.5 -89t-63.5 -243t66.5 -245t178.5 -91 q86 0 144 55t71 136h189q-37 -153 -141.5 -241.5t-280.5 -88.5q-189 0 -306.5 129t-117.5 340z" />
<glyph unicode="&#xab;" horiz-adv-x="1140" d="M246 508l280 340h150l-281 -340l281 -340h-150zM594 508l280 340h150l-281 -340l281 -340h-150z" />
<glyph unicode="&#xac;" d="M205 672v114h756v-356h-119v242h-637z" />
<glyph unicode="&#xad;" horiz-adv-x="561" d="M66 522v115h430v-115h-430z" />
<glyph unicode="&#xae;" horiz-adv-x="1040" d="M90 1135q0 189 120.5 309.5t309.5 120.5t309.5 -120.5t120.5 -309.5t-120.5 -309.5t-309.5 -120.5t-309.5 120.5t-120.5 309.5zM188 1135q0 -148 93 -242t239 -94t239 94t93 242t-93 241.5t-239 93.5t-239 -93.5t-93 -241.5zM367 932v418h143q37 0 55 -2 q137 -14 137 -113q0 -73 -88 -102q59 -10 66 -91q7 -64 27 -110h-117q-10 40 -15 92q-5 47 -59 47h-47v-139h-102zM469 1157h41q27 0 39 2q41 8 41 53q0 42 -41 52q-12 2 -39 2h-41v-109z" />
<glyph unicode="&#xaf;" horiz-adv-x="614" d="M61 1237v106h492v-106h-492z" />
<glyph unicode="&#xb0;" horiz-adv-x="610" d="M57 1198q0 108 69.5 176t178.5 68t178.5 -68t69.5 -176t-69.5 -176t-178.5 -68t-178.5 68t-69.5 176zM184 1198q0 -57 34 -93t87 -36t87 36t34 93t-34 93t-87 36t-87 -36t-34 -93z" />
<glyph unicode="&#xb1;" d="M164 0v115h860v-115h-860zM164 596v115h371v360h118v-360h371v-115h-371v-369h-118v369h-371z" />
<glyph unicode="&#xb4;" horiz-adv-x="614" d="M238 1188l124 225h164l-174 -225h-114z" />
<glyph unicode="&#xb6;" horiz-adv-x="1159" d="M90 1034q0 153 85.5 260.5t236.5 116.5q35 2 114 2h473v-1638h-118v1523h-189v-1523h-119v880h-47q-79 0 -114 2q-151 9 -236.5 116.5t-85.5 260.5z" />
<glyph unicode="&#xb7;" horiz-adv-x="413" d="M66 625q0 60 40.5 100.5t100.5 40.5t100.5 -40.5t40.5 -100.5t-40.5 -101t-100.5 -41t-100.5 41t-40.5 101z" />
<glyph unicode="&#xb8;" horiz-adv-x="614" d="M135 -322q43 -22 109 -22q62 0 94.5 24t32.5 66q0 54 -47 77.5t-150 16.5l96 178h109l-55 -100q81 -10 123 -54t42 -116q0 -85 -68 -131.5t-183 -46.5q-60 0 -103 18v90z" />
<glyph unicode="&#xbb;" horiz-adv-x="1140" d="M117 168l280 340l-280 340h149l281 -340l-281 -340h-149zM465 168l280 340l-280 340h149l281 -340l-281 -340h-149z" />
<glyph unicode="&#xbf;" horiz-adv-x="1005" d="M135 18q0 106 52.5 207t162.5 211q93 93 125 149t37 132h176q-9 -91 -43.5 -160.5t-120.5 -167.5q-111 -127 -151.5 -204t-40.5 -167q0 -107 63 -171t172 -64q118 0 190 75.5t81 215.5h184q-6 -196 -132.5 -313t-328.5 -117q-200 0 -313 105t-113 269zM469 983 q0 57 37 94t94 37t94 -37t37 -94t-37 -94t-94 -37t-94 37t-37 94z" />
<glyph unicode="&#xc0;" horiz-adv-x="1308" d="M59 0l508 1413h238l487 -1413h-190l-168 500h-520l-166 -500h-189zM463 643h424l-205 631zM477 1700h164l111 -193h-115z" />
<glyph unicode="&#xc1;" horiz-adv-x="1308" d="M59 0l508 1413h238l487 -1413h-190l-168 500h-520l-166 -500h-189zM463 643h424l-205 631zM618 1507l111 193h164l-160 -193h-115z" />
<glyph unicode="&#xc2;" horiz-adv-x="1308" d="M59 0l508 1413h238l487 -1413h-190l-168 500h-520l-166 -500h-189zM463 643h424l-205 631zM489 1507l138 193h121l137 -193h-137l-62 113l-61 -113h-136z" />
<glyph unicode="&#xc3;" horiz-adv-x="1308" d="M59 0l508 1413h238l487 -1413h-190l-168 500h-520l-166 -500h-189zM463 643h424l-205 631zM469 1536q0 82 26.5 113.5t79.5 31.5q48 0 127 -26q70 -23 91 -23q32 0 32 41h78q0 -82 -26.5 -113.5t-79.5 -31.5q-48 0 -127 26q-70 23 -90 23q-33 0 -33 -41h-78z" />
<glyph unicode="&#xc4;" horiz-adv-x="1308" d="M59 0l508 1413h238l487 -1413h-190l-168 500h-520l-166 -500h-189zM449 1604q0 38 28 66t66 28t66 -28t28 -66t-28 -66.5t-66 -28.5t-66 28.5t-28 66.5zM463 643h424l-205 631zM735 1604q0 38 28 66t66 28t66.5 -28t28.5 -66t-28.5 -66.5t-66.5 -28.5t-66 28.5t-28 66.5z " />
<glyph unicode="&#xc5;" horiz-adv-x="1308" d="M59 0l508 1413h238l487 -1413h-190l-168 500h-520l-166 -500h-189zM463 643h424l-205 631zM500 1628q0 71 52 116.5t134 45.5t134 -45.5t52 -116.5t-52 -116.5t-134 -45.5t-134 45.5t-52 116.5zM602 1628q0 -38 23.5 -63t60.5 -25t60.5 25t23.5 63t-23.5 63t-60.5 25 t-60.5 -25t-23.5 -63z" />
<glyph unicode="&#xc6;" horiz-adv-x="1859" d="M-72 0l815 1413h1039v-143h-768l28 -492h678v-143h-669l28 -492h723v-143h-891l-28 500h-482l-282 -500h-191zM481 643h393l-36 629z" />
<glyph unicode="&#xc7;" horiz-adv-x="1394" d="M96 700q0 213 83 382t236.5 264.5t350.5 95.5q241 0 384.5 -119t190.5 -319h-188q-35 135 -130 217t-261 82q-213 0 -341 -166.5t-128 -427.5q0 -264 124 -431t331 -167q161 0 261 82.5t130 212.5h188q-47 -197 -196 -314t-377 -121l-29 -53q81 -10 123.5 -54t42.5 -116 q0 -85 -68.5 -131.5t-183.5 -46.5q-59 0 -102 18v90q43 -22 108 -22q62 0 94.5 24t32.5 66q0 54 -47 77.5t-150 16.5l74 135q-261 32 -407 231t-146 494z" />
<glyph unicode="&#xc8;" horiz-adv-x="1202" d="M205 0v1413h919v-143h-743v-492h682v-143h-682v-492h764v-143h-940zM479 1700h164l111 -193h-115z" />
<glyph unicode="&#xc9;" horiz-adv-x="1202" d="M205 0v1413h919v-143h-743v-492h682v-143h-682v-492h764v-143h-940zM621 1507l110 193h164l-160 -193h-114z" />
<glyph unicode="&#xca;" horiz-adv-x="1202" d="M205 0v1413h919v-143h-743v-492h682v-143h-682v-492h764v-143h-940zM492 1507l137 193h121l137 -193h-137l-62 113l-61 -113h-135z" />
<glyph unicode="&#xcb;" horiz-adv-x="1202" d="M205 0v1413h919v-143h-743v-492h682v-143h-682v-492h764v-143h-940zM451 1604q0 38 28 66t66 28t66 -28t28 -66t-28 -66.5t-66 -28.5t-66 28.5t-28 66.5zM737 1604q0 38 28 66t66 28t66.5 -28t28.5 -66t-28.5 -66.5t-66.5 -28.5t-66 28.5t-28 66.5z" />
<glyph unicode="&#xcc;" horiz-adv-x="540" d="M84 1700h164l110 -193h-114zM205 0v1413h176v-1413h-176z" />
<glyph unicode="&#xcd;" horiz-adv-x="540" d="M205 0v1413h176v-1413h-176zM225 1507l111 193h164l-160 -193h-115z" />
<glyph unicode="&#xce;" horiz-adv-x="540" d="M96 1507l137 193h121l138 -193h-138l-61 113l-62 -113h-135zM205 0v1413h176v-1413h-176z" />
<glyph unicode="&#xcf;" horiz-adv-x="540" d="M55 1604q0 38 28.5 66t66.5 28t66 -28t28 -66t-28 -66.5t-66 -28.5t-66.5 28.5t-28.5 66.5zM205 0v1413h176v-1413h-176zM342 1604q0 38 28 66t66 28t66 -28t28 -66t-28 -66.5t-66 -28.5t-66 28.5t-28 66.5z" />
<glyph unicode="&#xd0;" horiz-adv-x="1435" d="M68 625v114h120v674h430q109 0 181 -8q257 -32 408 -204.5t151 -477.5q0 -304 -158.5 -493.5t-411.5 -221.5q-72 -8 -180 -8h-420v625h-120zM365 143h233q110 0 172 11q184 30 289.5 176.5t105.5 392.5q0 232 -101 369.5t-284 167.5q-56 10 -172 10h-243v-531h278v-114 h-278v-482z" />
<glyph unicode="&#xd1;" horiz-adv-x="1470" d="M205 0v1413h270l666 -1241q-6 249 -6 535v706h172v-1413h-267l-665 1241q6 -249 6 -534v-707h-176zM541 1536q0 82 26.5 113.5t79.5 31.5q48 0 127 -26q70 -23 90 -23q33 0 33 41h78q0 -82 -27 -113.5t-80 -31.5q-48 0 -127 26q-70 23 -90 23q-33 0 -33 -41h-77z" />
<glyph unicode="&#xd2;" horiz-adv-x="1509" d="M96 707q0 217 76.5 382t228.5 259t363 94t363 -94t228.5 -259t76.5 -382t-76.5 -381.5t-229 -259.5t-362.5 -95t-362.5 95t-229 259.5t-76.5 381.5zM293 707q0 -277 125 -436.5t346 -159.5t346 159.5t125 436.5q0 278 -124.5 437t-346.5 159t-346.5 -159t-124.5 -437z M555 1700h164l110 -193h-114z" />
<glyph unicode="&#xd3;" horiz-adv-x="1509" d="M96 707q0 217 76.5 382t228.5 259t363 94t363 -94t228.5 -259t76.5 -382t-76.5 -381.5t-229 -259.5t-362.5 -95t-362.5 95t-229 259.5t-76.5 381.5zM293 707q0 -277 125 -436.5t346 -159.5t346 159.5t125 436.5q0 278 -124.5 437t-346.5 159t-346.5 -159t-124.5 -437z M696 1507l111 193h164l-160 -193h-115z" />
<glyph unicode="&#xd4;" horiz-adv-x="1509" d="M96 707q0 217 76.5 382t228.5 259t363 94t363 -94t228.5 -259t76.5 -382t-76.5 -381.5t-229 -259.5t-362.5 -95t-362.5 95t-229 259.5t-76.5 381.5zM293 707q0 -277 125 -436.5t346 -159.5t346 159.5t125 436.5q0 278 -124.5 437t-346.5 159t-346.5 -159t-124.5 -437z M567 1507l138 193h120l138 -193h-138l-61 113l-62 -113h-135z" />
<glyph unicode="&#xd5;" horiz-adv-x="1509" d="M96 707q0 217 76.5 382t228.5 259t363 94t363 -94t228.5 -259t76.5 -382t-76.5 -381.5t-229 -259.5t-362.5 -95t-362.5 95t-229 259.5t-76.5 381.5zM293 707q0 -277 125 -436.5t346 -159.5t346 159.5t125 436.5q0 278 -124.5 437t-346.5 159t-346.5 -159t-124.5 -437z M547 1536q0 82 26.5 113.5t79.5 31.5q48 0 127 -26q70 -23 90 -23q33 0 33 41h78q0 -82 -27 -113.5t-80 -31.5q-47 0 -126 26q-70 23 -91 23q-32 0 -32 -41h-78z" />
<glyph unicode="&#xd6;" horiz-adv-x="1509" d="M96 707q0 217 76.5 382t228.5 259t363 94t363 -94t228.5 -259t76.5 -382t-76.5 -381.5t-229 -259.5t-362.5 -95t-362.5 95t-229 259.5t-76.5 381.5zM293 707q0 -277 125 -436.5t346 -159.5t346 159.5t125 436.5q0 278 -124.5 437t-346.5 159t-346.5 -159t-124.5 -437z M526 1604q0 38 28.5 66t66.5 28t66 -28t28 -66t-28 -66.5t-66 -28.5t-66.5 28.5t-28.5 66.5zM813 1604q0 38 28 66t66 28t66 -28t28 -66t-28 -66.5t-66 -28.5t-66 28.5t-28 66.5z" />
<glyph unicode="&#xd7;" d="M227 926l650 -650l84 84l-650 650z" />
<glyph unicode="&#xd8;" horiz-adv-x="1525" d="M88 106l139 140q-123 184 -123 461q0 217 76.5 382t228.5 259t363 94q294 0 471 -180l129 129l84 -84l-137 -138q121 -186 121 -462q0 -217 -76.5 -381.5t-229 -259.5t-362.5 -95q-293 0 -471 181l-129 -129zM301 707q0 -192 59 -328l762 762q-128 162 -350 162 t-346.5 -159t-124.5 -437zM424 274q123 -163 348 -163q221 0 346 159.5t125 436.5q0 191 -59 327z" />
<glyph unicode="&#xd9;" horiz-adv-x="1396" d="M193 522v891h176v-874q0 -88 4 -125q12 -138 102 -220.5t248 -82.5t248 82.5t102 220.5q4 37 4 125v874h176v-891q0 -86 -4 -127q-8 -91 -43 -166.5t-97.5 -134t-161 -91t-224.5 -32.5t-224.5 32.5t-161 91t-97.5 134t-43 166.5q-4 41 -4 127zM514 1700h164l110 -193 h-114z" />
<glyph unicode="&#xda;" horiz-adv-x="1396" d="M193 522v891h176v-874q0 -88 4 -125q12 -138 102 -220.5t248 -82.5t248 82.5t102 220.5q4 37 4 125v874h176v-891q0 -86 -4 -127q-8 -91 -43 -166.5t-97.5 -134t-161 -91t-224.5 -32.5t-224.5 32.5t-161 91t-97.5 134t-43 166.5q-4 41 -4 127zM655 1507l111 193h164 l-160 -193h-115z" />
<glyph unicode="&#xdb;" horiz-adv-x="1396" d="M193 522v891h176v-874q0 -88 4 -125q12 -138 102 -220.5t248 -82.5t248 82.5t102 220.5q4 37 4 125v874h176v-891q0 -86 -4 -127q-8 -91 -43 -166.5t-97.5 -134t-161 -91t-224.5 -32.5t-224.5 32.5t-161 91t-97.5 134t-43 166.5q-4 41 -4 127zM526 1507l138 193h120 l138 -193h-138l-61 113l-61 -113h-136z" />
<glyph unicode="&#xdc;" horiz-adv-x="1396" d="M193 522v891h176v-874q0 -88 4 -125q12 -138 102 -220.5t248 -82.5t248 82.5t102 220.5q4 37 4 125v874h176v-891q0 -86 -4 -127q-8 -91 -43 -166.5t-97.5 -134t-161 -91t-224.5 -32.5t-224.5 32.5t-161 91t-97.5 134t-43 166.5q-4 41 -4 127zM485 1604q0 38 28.5 66 t66.5 28t66 -28t28 -66t-28 -66.5t-66 -28.5t-66.5 28.5t-28.5 66.5zM772 1604q0 38 28 66t66 28t66.5 -28t28.5 -66t-28.5 -66.5t-66.5 -28.5t-66 28.5t-28 66.5z" />
<glyph unicode="&#xdd;" horiz-adv-x="1189" d="M39 1413h203l393 -686l381 686h198l-499 -856v-557h-176v557zM559 1507l111 193h164l-160 -193h-115z" />
<glyph unicode="&#xde;" horiz-adv-x="1290" d="M205 0v1413h176v-180h272q122 0 185 -8q160 -21 258 -121.5t98 -267.5q0 -168 -98.5 -271.5t-257.5 -124.5q-63 -8 -185 -8h-272v-432h-176zM381 580h272q109 0 158 10q195 45 195 241q0 199 -195 244q-49 10 -158 10h-272v-505z" />
<glyph unicode="&#xdf;" horiz-adv-x="1245" d="M152 0v983q0 57 4 131q12 211 142.5 320.5t328.5 109.5q208 0 329 -97.5t121 -260.5q0 -109 -63 -211q-158 -84 -158 -160q0 -53 29 -94t104 -103q93 -75 133.5 -147.5t40.5 -179.5q0 -137 -110.5 -218t-274.5 -81q-100 0 -200 20v142q106 -27 192 -27q98 0 147.5 47.5 t49.5 130.5q0 56 -26.5 104.5t-104.5 116.5q-69 60 -104 99.5t-54 85.5t-19 104q0 148 185 238q37 63 37 131q0 104 -67 162.5t-196 58.5q-120 0 -198 -76t-88 -219q-4 -58 -4 -111v-999h-176z" />
<glyph unicode="&#xe0;" horiz-adv-x="1087" d="M74 281q0 187 147.5 279.5t462.5 92.5h70v29q0 90 -4 131q-13 166 -211 166q-216 0 -234 -229h-184q12 172 124 268t294 96q187 0 279 -74t106 -213q6 -64 6 -143v-408q0 -125 20 -276h-176l-18 156l-60 -117q-99 -68 -272 -68q-153 0 -251.5 82t-98.5 228zM266 295 q0 -96 57 -142.5t160 -46.5q125 0 198 80t73 226v110q-233 18 -360.5 -37t-127.5 -190zM317 1413h164l125 -225h-114z" />
<glyph unicode="&#xe1;" horiz-adv-x="1087" d="M74 281q0 187 147.5 279.5t462.5 92.5h70v29q0 90 -4 131q-13 166 -211 166q-216 0 -234 -229h-184q12 172 124 268t294 96q187 0 279 -74t106 -213q6 -64 6 -143v-408q0 -125 20 -276h-176l-18 156l-60 -117q-99 -68 -272 -68q-153 0 -251.5 82t-98.5 228zM266 295 q0 -96 57 -142.5t160 -46.5q125 0 198 80t73 226v110q-233 18 -360.5 -37t-127.5 -190zM471 1188l125 225h164l-174 -225h-115z" />
<glyph unicode="&#xe2;" horiz-adv-x="1087" d="M74 281q0 187 147.5 279.5t462.5 92.5h70v29q0 90 -4 131q-13 166 -211 166q-216 0 -234 -229h-184q12 172 124 268t294 96q187 0 279 -74t106 -213q6 -64 6 -143v-408q0 -125 20 -276h-176l-18 156l-60 -117q-99 -68 -272 -68q-153 0 -251.5 82t-98.5 228zM266 295 q0 -96 57 -142.5t160 -46.5q125 0 198 80t73 226v110q-233 18 -360.5 -37t-127.5 -190zM344 1188l137 225h121l137 -225h-131l-67 129l-68 -129h-129z" />
<glyph unicode="&#xe3;" horiz-adv-x="1087" d="M74 281q0 187 147.5 279.5t462.5 92.5h70v29q0 90 -4 131q-13 166 -211 166q-216 0 -234 -229h-184q12 172 124 268t294 96q187 0 279 -74t106 -213q6 -64 6 -143v-408q0 -125 20 -276h-176l-18 156l-60 -117q-99 -68 -272 -68q-153 0 -251.5 82t-98.5 228zM266 295 q0 -96 57 -142.5t160 -46.5q125 0 198 80t73 226v110q-233 18 -360.5 -37t-127.5 -190zM324 1229q0 82 26.5 113.5t79.5 31.5q48 0 127 -26q70 -23 90 -23q33 0 33 41h78q0 -82 -27 -113.5t-80 -31.5q-48 0 -127 26q-70 23 -90 23q-33 0 -33 -41h-77z" />
<glyph unicode="&#xe4;" horiz-adv-x="1087" d="M74 281q0 187 147.5 279.5t462.5 92.5h70v29q0 90 -4 131q-13 166 -211 166q-216 0 -234 -229h-184q12 172 124 268t294 96q187 0 279 -74t106 -213q6 -64 6 -143v-408q0 -125 20 -276h-176l-18 156l-60 -117q-99 -68 -272 -68q-153 0 -251.5 82t-98.5 228zM266 295 q0 -96 57 -142.5t160 -46.5q125 0 198 80t73 226v110q-233 18 -360.5 -37t-127.5 -190zM297 1288q0 38 28 66t66 28t66 -28t28 -66t-28 -66t-66 -28t-66 28t-28 66zM596 1288q0 38 28 66t66 28t66 -28t28 -66t-28 -66t-66 -28t-66 28t-28 66z" />
<glyph unicode="&#xe5;" horiz-adv-x="1087" d="M74 281q0 187 147.5 279.5t462.5 92.5h70v29q0 90 -4 131q-13 166 -211 166q-216 0 -234 -229h-184q12 172 124 268t294 96q187 0 279 -74t106 -213q6 -64 6 -143v-408q0 -125 20 -276h-176l-18 156l-60 -117q-99 -68 -272 -68q-153 0 -251.5 82t-98.5 228zM266 295 q0 -96 57 -142.5t160 -46.5q125 0 198 80t73 226v110q-233 18 -360.5 -37t-127.5 -190zM354 1329q0 75 52.5 123.5t134.5 48.5t134 -48.5t52 -123.5t-52 -123.5t-134 -48.5t-134.5 48.5t-52.5 123.5zM457 1329q0 -45 23.5 -71.5t60.5 -26.5t60.5 26.5t23.5 71.5t-23.5 71.5 t-60.5 26.5t-60.5 -26.5t-23.5 -71.5z" />
<glyph unicode="&#xe6;" horiz-adv-x="1818" d="M74 281q0 182 153.5 263t477.5 81h69v57q0 297 -235 297q-225 0 -234 -229h-184q4 172 115.5 268t302.5 96q147 0 234 -49t126 -147q129 196 373 196q220 0 342.5 -149t122.5 -392q0 -45 -4 -84h-783q11 -193 95 -288t212 -95q108 0 185.5 64.5t95.5 179.5h184 q-16 -95 -60.5 -169t-109 -119t-141 -68t-162.5 -23q-289 0 -407 236l-56 -111q-145 -125 -348 -125q-155 0 -259.5 82.5t-104.5 227.5zM266 295q0 -96 57 -142.5t160 -46.5q126 0 208.5 88.5t82.5 233.5v61q-96 3 -175.5 1t-141.5 -13.5t-104.5 -33.5t-64.5 -59t-22 -89z M950 625h609q-14 172 -87 263t-204 91q-132 0 -216.5 -91.5t-101.5 -262.5z" />
<glyph unicode="&#xe7;" horiz-adv-x="1083" d="M61 541q0 134 41.5 244t112 181t162 109.5t194.5 38.5q192 0 313 -106t146 -287h-184q-58 258 -279 258q-136 0 -224.5 -108.5t-88.5 -317.5q0 -224 85 -335.5t216 -111.5q108 0 180.5 61t100.5 179h184q-37 -178 -154 -272.5t-291 -102.5l-28 -53q81 -10 123.5 -54 t42.5 -116q0 -85 -68.5 -131.5t-183.5 -46.5q-59 0 -103 18v90q43 -22 109 -22q62 0 94.5 24t32.5 66q0 54 -47 77.5t-150 16.5l74 135q-188 23 -299 165t-111 401z" />
<glyph unicode="&#xe8;" horiz-adv-x="1124" d="M61 539q0 260 145.5 417.5t371.5 157.5q219 0 341.5 -148.5t122.5 -392.5q0 -45 -4 -84h-786q11 -202 95.5 -292.5t215.5 -90.5q108 0 185.5 64.5t95.5 179.5h184q-16 -95 -60.5 -169t-109 -119t-141 -68t-162.5 -23q-107 0 -196.5 35.5t-156.5 104.5t-104 178.5 t-37 249.5zM254 625h610q-14 172 -87 263t-204 91q-133 0 -218.5 -92t-100.5 -262zM344 1413h164l125 -225h-115z" />
<glyph unicode="&#xe9;" horiz-adv-x="1124" d="M61 539q0 260 145.5 417.5t371.5 157.5q219 0 341.5 -148.5t122.5 -392.5q0 -45 -4 -84h-786q11 -202 95.5 -292.5t215.5 -90.5q108 0 185.5 64.5t95.5 179.5h184q-16 -95 -60.5 -169t-109 -119t-141 -68t-162.5 -23q-107 0 -196.5 35.5t-156.5 104.5t-104 178.5 t-37 249.5zM254 625h610q-14 172 -87 263t-204 91q-133 0 -218.5 -92t-100.5 -262zM498 1188l125 225h163l-174 -225h-114z" />
<glyph unicode="&#xea;" horiz-adv-x="1124" d="M61 539q0 260 145.5 417.5t371.5 157.5q219 0 341.5 -148.5t122.5 -392.5q0 -45 -4 -84h-786q11 -202 95.5 -292.5t215.5 -90.5q108 0 185.5 64.5t95.5 179.5h184q-16 -95 -60.5 -169t-109 -119t-141 -68t-162.5 -23q-107 0 -196.5 35.5t-156.5 104.5t-104 178.5 t-37 249.5zM254 625h610q-14 172 -87 263t-204 91q-133 0 -218.5 -92t-100.5 -262zM371 1188l137 225h121l137 -225h-131l-68 129l-67 -129h-129z" />
<glyph unicode="&#xeb;" horiz-adv-x="1124" d="M61 539q0 260 145.5 417.5t371.5 157.5q219 0 341.5 -148.5t122.5 -392.5q0 -45 -4 -84h-786q11 -202 95.5 -292.5t215.5 -90.5q108 0 185.5 64.5t95.5 179.5h184q-16 -95 -60.5 -169t-109 -119t-141 -68t-162.5 -23q-107 0 -196.5 35.5t-156.5 104.5t-104 178.5 t-37 249.5zM254 625h610q-14 172 -87 263t-204 91q-133 0 -218.5 -92t-100.5 -262zM324 1288q0 38 28 66t66 28t66 -28t28 -66t-28 -66t-66 -28t-66 28t-28 66zM623 1288q0 38 28 66t66 28t66 -28t28 -66t-28 -66t-66 -28t-66 28t-28 66z" />
<glyph unicode="&#xec;" horiz-adv-x="487" d="M16 1413h164l125 -225h-115zM152 0v1085h176v-1085h-176z" />
<glyph unicode="&#xed;" horiz-adv-x="487" d="M152 0v1085h176v-1085h-176zM170 1188l125 225h164l-174 -225h-115z" />
<glyph unicode="&#xee;" horiz-adv-x="487" d="M43 1188l137 225h121l137 -225h-131l-67 129l-68 -129h-129zM152 0v1085h176v-1085h-176z" />
<glyph unicode="&#xef;" horiz-adv-x="487" d="M-4 1288q0 38 28 66t66 28t66 -28t28 -66t-28 -66t-66 -28t-66 28t-28 66zM152 0v1085h176v-1085h-176zM295 1288q0 38 28 66t66 28t66 -28t28 -66t-28 -66t-66 -28t-66 28t-28 66z" />
<glyph unicode="&#xf0;" horiz-adv-x="1198" d="M61 526q0 134 41 246.5t109.5 186.5t158 114.5t187.5 40.5q76 0 130 -13t110 -46l92 -123q-15 198 -139 325l-283 -116l-41 106l223 92q-74 45 -155 74l110 113q118 -49 207 -119l137 55l41 -106l-86 -35q104 -121 151.5 -290.5t47.5 -401.5q0 -139 -29 -251t-78.5 -187 t-118 -125.5t-145.5 -72.5t-164 -22q-124 0 -221 42t-159 117t-94 175.5t-32 220.5zM254 547q0 -207 83 -324t243 -117q144 0 236.5 108.5t92.5 317.5v60q0 101 -29.5 178.5t-78 121.5t-105.5 65.5t-118 21.5q-143 0 -233.5 -120t-90.5 -312z" />
<glyph unicode="&#xf1;" horiz-adv-x="1214" d="M152 0v1085h176v-186l67 125q66 52 130.5 71t152.5 19q175 0 275 -85.5t112 -231.5q4 -55 4 -187v-610h-176v598q0 101 -4 156q-8 102 -68 161.5t-180 59.5q-67 0 -121.5 -26.5t-98.5 -82.5t-68.5 -155t-24.5 -234v-477h-176zM408 1229q0 82 26.5 113.5t79.5 31.5 q48 0 127 -26q70 -23 90 -23q33 0 33 41h78q0 -82 -27 -113.5t-80 -31.5q-48 0 -127 26q-70 23 -90 23q-33 0 -33 -41h-77z" />
<glyph unicode="&#xf2;" horiz-adv-x="1200" d="M61 543q0 118 33 219.5t97.5 181t169.5 125t239 45.5t239 -45.5t169.5 -125t97.5 -181t33 -219.5q0 -117 -33 -218.5t-97.5 -181.5t-169.5 -126t-239 -46t-239 46t-169.5 126t-97.5 181.5t-33 218.5zM254 543q0 -195 92.5 -316t253.5 -121t253.5 121t92.5 316 q0 196 -92.5 316t-253.5 120t-253.5 -120t-92.5 -316zM377 1413h164l125 -225h-115z" />
<glyph unicode="&#xf3;" horiz-adv-x="1200" d="M61 543q0 118 33 219.5t97.5 181t169.5 125t239 45.5t239 -45.5t169.5 -125t97.5 -181t33 -219.5q0 -117 -33 -218.5t-97.5 -181.5t-169.5 -126t-239 -46t-239 46t-169.5 126t-97.5 181.5t-33 218.5zM254 543q0 -195 92.5 -316t253.5 -121t253.5 121t92.5 316 q0 196 -92.5 316t-253.5 120t-253.5 -120t-92.5 -316zM530 1188l125 225h164l-174 -225h-115z" />
<glyph unicode="&#xf4;" horiz-adv-x="1200" d="M61 543q0 118 33 219.5t97.5 181t169.5 125t239 45.5t239 -45.5t169.5 -125t97.5 -181t33 -219.5q0 -117 -33 -218.5t-97.5 -181.5t-169.5 -126t-239 -46t-239 46t-169.5 126t-97.5 181.5t-33 218.5zM254 543q0 -195 92.5 -316t253.5 -121t253.5 121t92.5 316 q0 196 -92.5 316t-253.5 120t-253.5 -120t-92.5 -316zM403 1188l138 225h121l137 -225h-131l-68 129l-68 -129h-129z" />
<glyph unicode="&#xf5;" horiz-adv-x="1200" d="M61 543q0 118 33 219.5t97.5 181t169.5 125t239 45.5t239 -45.5t169.5 -125t97.5 -181t33 -219.5q0 -117 -33 -218.5t-97.5 -181.5t-169.5 -126t-239 -46t-239 46t-169.5 126t-97.5 181.5t-33 218.5zM254 543q0 -195 92.5 -316t253.5 -121t253.5 121t92.5 316 q0 196 -92.5 316t-253.5 120t-253.5 -120t-92.5 -316zM383 1229q0 82 26.5 113.5t79.5 31.5q48 0 127 -26q70 -23 91 -23q32 0 32 41h78q0 -82 -26.5 -113.5t-79.5 -31.5q-48 0 -127 26q-70 23 -90 23q-33 0 -33 -41h-78z" />
<glyph unicode="&#xf6;" horiz-adv-x="1200" d="M61 543q0 118 33 219.5t97.5 181t169.5 125t239 45.5t239 -45.5t169.5 -125t97.5 -181t33 -219.5q0 -117 -33 -218.5t-97.5 -181.5t-169.5 -126t-239 -46t-239 46t-169.5 126t-97.5 181.5t-33 218.5zM254 543q0 -195 92.5 -316t253.5 -121t253.5 121t92.5 316 q0 196 -92.5 316t-253.5 120t-253.5 -120t-92.5 -316zM356 1288q0 38 28.5 66t66.5 28t66 -28t28 -66t-28 -66t-66 -28t-66.5 28t-28.5 66zM655 1288q0 38 28.5 66t66.5 28t66 -28t28 -66t-28 -66t-66 -28t-66.5 28t-28.5 66z" />
<glyph unicode="&#xf7;" d="M164 596v115h860v-115h-860zM483 322q0 49 32.5 81.5t82.5 32.5t82.5 -32.5t32.5 -81.5q0 -50 -32.5 -82.5t-82.5 -32.5t-82.5 32.5t-32.5 82.5zM483 977q0 49 32.5 82t82.5 33t82.5 -33t32.5 -82t-32.5 -82t-82.5 -33t-82.5 33t-32.5 82z" />
<glyph unicode="&#xf8;" horiz-adv-x="1269" d="M53 45l131 131q-104 149 -104 367q0 93 20 177t63 156.5t105.5 125t152 82.5t197.5 30q232 0 371 -133l144 143l84 -84l-152 -151q92 -145 92 -346q0 -117 -33 -218.5t-97.5 -181.5t-169.5 -126t-239 -46q-214 0 -354 117l-127 -127zM272 543q0 -138 45 -234l553 553 q-93 117 -252 117q-161 0 -253.5 -120t-92.5 -316zM383 207q91 -101 235 -101q161 0 254 121.5t93 315.5q0 118 -35 211z" />
<glyph unicode="&#xf9;" horiz-adv-x="1212" d="M135 434v651h176v-618q0 -77 8 -150q12 -94 78 -150t174 -56q66 0 119.5 26t96.5 82.5t66.5 155t23.5 233.5v477h176v-1085h-176v184l-68 -127q-66 -49 -130.5 -67.5t-152.5 -18.5q-161 0 -261 79t-120 198q-10 69 -10 186zM371 1413h164l124 -225h-114z" />
<glyph unicode="&#xfa;" horiz-adv-x="1212" d="M135 434v651h176v-618q0 -77 8 -150q12 -94 78 -150t174 -56q66 0 119.5 26t96.5 82.5t66.5 155t23.5 233.5v477h176v-1085h-176v184l-68 -127q-66 -49 -130.5 -67.5t-152.5 -18.5q-161 0 -261 79t-120 198q-10 69 -10 186zM524 1188l125 225h164l-174 -225h-115z" />
<glyph unicode="&#xfb;" horiz-adv-x="1212" d="M135 434v651h176v-618q0 -77 8 -150q12 -94 78 -150t174 -56q66 0 119.5 26t96.5 82.5t66.5 155t23.5 233.5v477h176v-1085h-176v184l-68 -127q-66 -49 -130.5 -67.5t-152.5 -18.5q-161 0 -261 79t-120 198q-10 69 -10 186zM397 1188l138 225h120l138 -225h-131l-68 129 l-68 -129h-129z" />
<glyph unicode="&#xfc;" horiz-adv-x="1212" d="M135 434v651h176v-618q0 -77 8 -150q12 -94 78 -150t174 -56q66 0 119.5 26t96.5 82.5t66.5 155t23.5 233.5v477h176v-1085h-176v184l-68 -127q-66 -49 -130.5 -67.5t-152.5 -18.5q-161 0 -261 79t-120 198q-10 69 -10 186zM350 1288q0 38 28 66t66 28t66.5 -28t28.5 -66 t-28.5 -66t-66.5 -28t-66 28t-28 66zM649 1288q0 38 28 66t66 28t66.5 -28t28.5 -66t-28.5 -66t-66.5 -28t-66 28t-28 66z" />
<glyph unicode="&#xfd;" horiz-adv-x="1050" d="M2 1085h199l323 -954l322 954h192l-446 -1177q-67 -173 -158.5 -255.5t-222.5 -82.5q-63 0 -90 4v143q27 -2 63 -2q84 0 140 43.5t96 147.5l14 39zM457 1188l125 225h163l-174 -225h-114z" />
<glyph unicode="&#xfe;" horiz-adv-x="1251" d="M152 -401v1906h176v-594l82 117q46 38 124.5 62t161.5 24q155 0 268 -73t169.5 -197.5t56.5 -284.5q0 -146 -43 -260.5t-117.5 -184.5t-168.5 -106.5t-202 -36.5q-71 0 -145.5 19.5t-114.5 52.5l-71 107v-551h-176zM328 494q0 -101 29.5 -178.5t78 -121.5t105.5 -66 t118 -22q149 0 243.5 113t94.5 320q0 125 -35.5 223t-111 157.5t-180.5 59.5q-70 0 -129.5 -23.5t-108.5 -72t-76.5 -133t-27.5 -197.5v-59z" />
<glyph unicode="&#xff;" horiz-adv-x="1050" d="M2 1085h199l323 -954l322 954h192l-446 -1177q-67 -173 -158.5 -255.5t-222.5 -82.5q-63 0 -90 4v143q27 -2 63 -2q84 0 140 43.5t96 147.5l14 39zM283 1288q0 38 28 66t66 28t66 -28t28 -66t-28 -66t-66 -28t-66 28t-28 66zM582 1288q0 38 28 66t66 28t66 -28t28 -66 t-28 -66t-66 -28t-66 28t-28 66z" />
<glyph unicode="&#x152;" horiz-adv-x="2232" d="M96 707q0 155 44 289t125 233t204.5 156t273.5 57q156 0 255.5 -40t181.5 -136l55 -146v293h919v-143h-743v-492h682v-143h-682v-492h764v-143h-940v289l-55 -150q-147 -168 -437 -168q-150 0 -273.5 57.5t-204.5 157t-125 233.5t-44 288zM293 707q0 -268 126 -432 t345 -164t345 164t126 432q0 269 -125.5 432.5t-345.5 163.5t-345.5 -163.5t-125.5 -432.5z" />
<glyph unicode="&#x153;" horiz-adv-x="2009" d="M61 543q0 118 33 219.5t97.5 181t169.5 125t239 45.5q316 0 444 -264q128 264 418 264q220 0 342.5 -149t122.5 -392q0 -45 -4 -84h-782q11 -193 95 -288t212 -95q108 0 185.5 64.5t95.5 179.5h184q-16 -95 -60.5 -169t-109 -119t-141 -68t-162.5 -23q-283 0 -404 258 q-128 -258 -436 -258q-134 0 -239 46t-169.5 126t-97.5 181.5t-33 218.5zM254 543q0 -195 92.5 -316t253.5 -121t253.5 121t92.5 316q0 196 -92.5 316t-253.5 120t-253.5 -120t-92.5 -316zM1141 625h608q-14 172 -87 263t-204 91q-132 0 -216 -91.5t-101 -262.5z" />
<glyph unicode="&#x178;" horiz-adv-x="1189" d="M39 1413h203l393 -686l381 686h198l-499 -856v-557h-176v557zM389 1604q0 38 28 66t66 28t66.5 -28t28.5 -66t-28.5 -66.5t-66.5 -28.5t-66 28.5t-28 66.5zM676 1604q0 38 28 66t66 28t66 -28t28 -66t-28 -66.5t-66 -28.5t-66 28.5t-28 66.5z" />
<glyph unicode="&#x2c6;" horiz-adv-x="614" d="M111 1188l137 225h121l137 -225h-131l-68 129l-67 -129h-129z" />
<glyph unicode="&#x2dc;" horiz-adv-x="614" d="M90 1229q0 82 27 113.5t80 31.5q48 0 127 -26q70 -23 90 -23q32 0 32 41h78q0 -82 -26.5 -113.5t-79.5 -31.5q-48 0 -127 26q-70 23 -90 23q-33 0 -33 -41h-78z" />
<glyph unicode="&#x2000;" horiz-adv-x="895" />
<glyph unicode="&#x2001;" horiz-adv-x="1790" />
<glyph unicode="&#x2002;" horiz-adv-x="895" />
<glyph unicode="&#x2003;" horiz-adv-x="1790" />
<glyph unicode="&#x2004;" horiz-adv-x="596" />
<glyph unicode="&#x2005;" horiz-adv-x="447" />
<glyph unicode="&#x2006;" horiz-adv-x="298" />
<glyph unicode="&#x2007;" horiz-adv-x="298" />
<glyph unicode="&#x2008;" horiz-adv-x="223" />
<glyph unicode="&#x2009;" horiz-adv-x="358" />
<glyph unicode="&#x200a;" horiz-adv-x="99" />
<glyph unicode="&#x2010;" horiz-adv-x="561" d="M66 522v115h430v-115h-430z" />
<glyph unicode="&#x2011;" horiz-adv-x="561" d="M66 522v115h430v-115h-430z" />
<glyph unicode="&#x2012;" horiz-adv-x="561" d="M66 522v115h430v-115h-430z" />
<glyph unicode="&#x2013;" horiz-adv-x="1024" d="M143 541v114h738v-114h-738z" />
<glyph unicode="&#x2014;" horiz-adv-x="2048" d="M143 541v114h1762v-114h-1762z" />
<glyph unicode="&#x2018;" horiz-adv-x="505" d="M111 993v21l192 491h158l-160 -512h-190z" />
<glyph unicode="&#x2019;" horiz-adv-x="505" d="M45 993l160 512h190v-20l-192 -492h-158z" />
<glyph unicode="&#x201a;" horiz-adv-x="471" d="M-63 -246l159 451h191v-21l-185 -430h-165z" />
<glyph unicode="&#x201c;" horiz-adv-x="854" d="M111 993v21l192 491h158l-160 -512h-190zM459 993v21l192 491h158l-160 -512h-190z" />
<glyph unicode="&#x201d;" horiz-adv-x="854" d="M45 993l160 512h190v-20l-192 -492h-158zM393 993l160 512h190v-20l-192 -492h-158z" />
<glyph unicode="&#x201e;" horiz-adv-x="819" d="M-63 -246l159 451h191v-21l-185 -430h-165zM285 -246l159 451h191v-21l-184 -430h-166z" />
<glyph unicode="&#x2022;" horiz-adv-x="745" d="M160 625q0 91 61 152t152 61t152 -61t61 -152t-61 -152t-152 -61t-152 61t-61 152z" />
<glyph unicode="&#x2026;" horiz-adv-x="1290" d="M76 102q0 57 37 94t94 37t94 -37t37 -94t-37 -94t-94 -37t-94 37t-37 94zM485 102q0 57 37 94t94 37t94.5 -37t37.5 -94t-37.5 -94t-94.5 -37t-94 37t-37 94zM895 102q0 57 37 94t94 37t94 -37t37 -94t-37 -94t-94 -37t-94 37t-37 94z" />
<glyph unicode="&#x202f;" horiz-adv-x="358" />
<glyph unicode="&#x2039;" horiz-adv-x="792" d="M246 508l280 340h150l-281 -340l281 -340h-150z" />
<glyph unicode="&#x203a;" horiz-adv-x="792" d="M117 168l280 340l-280 340h149l281 -340l-281 -340h-149z" />
<glyph unicode="&#x205f;" horiz-adv-x="447" />
<glyph unicode="&#x20ac;" d="M61 532l21 115h115v53q0 40 2 58h-101l21 114h88q39 285 198.5 427.5t409.5 142.5q225 0 334 -127l-86 -117q-45 51 -111 78t-141 27q-165 0 -272.5 -102.5t-135.5 -328.5h607l-23 -114h-594v-49q0 -42 2 -62h576l-19 -115h-549q27 -219 128 -320t274 -101q172 0 301 82 v-146q-133 -76 -311 -76q-130 0 -228 29t-175.5 93t-124 173.5t-62.5 265.5h-144z" />
<glyph unicode="&#x2122;" horiz-adv-x="1103" d="M41 1268v84h405v-84h-151v-334h-102v334h-152zM496 934v416h153l88 -318l88 318h150v-416h-103l5 291l-89 -283h-106l-84 281v-289h-102z" />
<glyph unicode="&#x25fc;" horiz-adv-x="1085" d="M0 0v1085h1085v-1085h-1085z" />
</font>
</defs>
</svg>
