<?xml version="1.0" standalone="no"?>
<!DOCTYPE svg PUBLIC "-//W3C//DTD SVG 1.1//EN" "http://www.w3.org/Graphics/SVG/1.1/DTD/svg11.dtd" >
<svg xmlns="http://www.w3.org/2000/svg">
<metadata></metadata>
<defs>
<font id="aileronsemibold_italic" horiz-adv-x="1230" >
<font-face units-per-em="2048" ascent="1577" descent="-471" />
<missing-glyph horiz-adv-x="366" />
<glyph unicode="&#xfb01;" horiz-adv-x="1122" d="M61 0l162 922h-96l27 157h96l4 25q7 46 29 127q86 313 510 313q78 0 139 -12l-31 -168q-185 20 -276 -15.5t-121 -129.5q-18 -64 -23 -103l-8 -37h602l-188 -1079h-223l159 922h-377l-161 -922h-224z" />
<glyph unicode="&#xfb02;" horiz-adv-x="1150" d="M59 0l162 922h-96l29 157h94l6 25q10 63 27 127q86 313 532 313q197 0 328 -41l-207 -1171q-14 -74 -14 -107q0 -42 27.5 -59.5t88.5 -13.5l-28 -154q-60 -8 -144 -8q-91 0 -136.5 31t-45.5 110q0 48 27 195l184 1042q-49 12 -119 12q-221 0 -270 -161q-18 -64 -23 -103 l-8 -37h223l-28 -157h-222l-163 -922h-224z" />
<glyph horiz-adv-x="2048" />
<glyph horiz-adv-x="2048" />
<glyph unicode="&#xd;" horiz-adv-x="2048" />
<glyph unicode=" "  horiz-adv-x="366" />
<glyph unicode="&#x09;" horiz-adv-x="366" />
<glyph unicode="&#xa0;" horiz-adv-x="366" />
<glyph unicode="!" horiz-adv-x="559" d="M53 92q0 74 52.5 126t125.5 52q57 0 91 -32.5t34 -85.5q0 -76 -52.5 -128.5t-125.5 -52.5q-57 0 -91 33.5t-34 87.5zM156 395l182 1018h240l-232 -1018h-190z" />
<glyph unicode="&#x22;" horiz-adv-x="641" d="M86 971l82 534h209l-123 -534h-168zM399 971l80 534h211l-123 -534h-168z" />
<glyph unicode="#" d="M129 440l25 135h208l103 265h-205l25 135h233l170 438h141l-170 -438h185l170 438h141l-170 -438h180l-24 -135h-209l-103 -265h205l-24 -135h-234l-172 -440h-141l172 440h-184l-172 -440h-142l172 440h-180zM504 575h184l103 265h-185z" />
<glyph unicode="$" d="M37 389h229q12 -196 180 -239l84 475q-84 28 -144 59.5t-108 76.5t-72 107t-24 142t31.5 154t91 134.5t155.5 99t216 44.5l26 155h142l-29 -163q163 -25 250 -134t92 -268h-227q-1 83 -40 143t-106 85l-79 -451q191 -70 280.5 -169t89.5 -251q0 -187 -142.5 -298.5 t-377.5 -119.5l-27 -155h-141l29 161q-127 17 -211 76t-122.5 142t-45.5 194zM412 1030q0 -70 40 -113t117 -73l76 428q-111 -12 -172 -79.5t-61 -162.5zM586 139q256 19 256 234q0 79 -42.5 129t-135.5 86z" />
<glyph unicode="%" horiz-adv-x="1548" d="M115 0l1161 1413h215l-1161 -1413h-215zM166 1053q0 75 22.5 143.5t65.5 124t113.5 88.5t158.5 33q124 0 198.5 -74t74.5 -199q0 -75 -22.5 -143.5t-66 -124t-114 -88.5t-158.5 -33q-124 0 -198 75t-74 198zM352 1047q0 -62 26 -97t77 -35q70 0 113.5 73t43.5 188 q0 62 -25.5 96.5t-76.5 34.5q-70 0 -114 -72t-44 -188zM807 244q0 75 22.5 143.5t65.5 124t113 88.5t157 33q126 0 200.5 -74t74.5 -199q0 -75 -22.5 -143.5t-66 -124t-114 -88.5t-158.5 -33q-124 0 -198 75t-74 198zM991 238q0 -62 26.5 -97t78.5 -35q70 0 113.5 73 t43.5 188q0 62 -25.5 96.5t-76.5 34.5q-71 0 -115.5 -72.5t-44.5 -187.5z" />
<glyph unicode="&#x26;" horiz-adv-x="1318" d="M35 322q0 65 24 126t70.5 113.5t122 90.5t170.5 53q-97 32 -155 112.5t-58 179.5q0 62 22 124t69.5 120t115 102.5t166 71.5t215.5 27q112 0 237 -23l-33 -170q-105 21 -237 21q-154 0 -234.5 -78t-80.5 -184q0 -95 56.5 -153.5t145.5 -63.5q85 -5 228 -5l41 232h225 l-43 -232h194l-30 -180h-195l-106 -602q-185 -33 -441 -33q-226 0 -357.5 90.5t-131.5 260.5zM274 346q0 -97 73.5 -150t221.5 -53q97 0 199 11l80 452q-154 0 -230 -2q-166 -9 -255 -76t-89 -182z" />
<glyph unicode="'" horiz-adv-x="327" d="M86 971l82 534h209l-123 -534h-168z" />
<glyph unicode="(" horiz-adv-x="690" d="M180 428q0 189 46 388t149.5 408t253.5 373h135q-218 -274 -324 -577t-106 -588q0 -337 119 -596h-136q-137 243 -137 592z" />
<glyph unicode=")" horiz-adv-x="690" d="M-51 -164q218 274 324 577.5t106 587.5q0 337 -119 596h135q137 -243 137 -591q0 -292 -113.5 -608.5t-334.5 -561.5h-135z" />
<glyph unicode="*" horiz-adv-x="1101" d="M154 598l73 147l277 -118l41 346h155l-82 -346l320 118l20 -147l-323 -78l176 -268l-143 -92l-136 293l-243 -293l-109 92l269 268z" />
<glyph unicode="+" d="M156 582l24 131h367l74 415h139l-74 -415h369l-23 -131h-368l-72 -412h-141l71 412h-366z" />
<glyph unicode="," horiz-adv-x="503" d="M-186 -248l247 490h232l-4 -23l-279 -467h-196z" />
<glyph unicode="-" horiz-adv-x="581" d="M53 512l25 135h450l-24 -135h-451z" />
<glyph unicode="." horiz-adv-x="503" d="M-6 96q0 76 51 125t125 49q57 0 91 -34.5t34 -90.5q0 -75 -51 -124.5t-123 -49.5q-58 0 -92.5 34.5t-34.5 90.5z" />
<glyph unicode="/" horiz-adv-x="643" d="M-125 -61l787 1536h147l-784 -1536h-150z" />
<glyph unicode="0" d="M66 508q0 85 9.5 172t31.5 180t55 176t83.5 158t114 129.5t150 86.5t186.5 32q240 0 361 -146.5t121 -388.5q0 -85 -9.5 -171.5t-31.5 -179.5t-55 -176.5t-84 -159t-114.5 -130.5t-150 -87t-186.5 -32q-123 0 -216.5 40.5t-150.5 113.5t-85.5 169t-28.5 214zM309 500 q0 -166 60 -261.5t180 -95.5q87 0 157 59t111 146.5t69 196.5t38 201t10 169q0 166 -59.5 260.5t-180.5 94.5q-73 0 -134 -40.5t-101.5 -108t-71 -148.5t-47 -170.5t-24 -164t-7.5 -138.5z" />
<glyph unicode="1" d="M281 838l49 247l549 328h143l-256 -1413h-223l200 1116z" />
<glyph unicode="2" d="M29 0l26 156l582 479q182 147 249.5 240.5t67.5 201.5q0 93 -50 144t-150 51q-116 0 -202.5 -75t-117.5 -214h-233q45 208 200 334.5t385 126.5q196 0 303 -94.5t107 -257.5q0 -81 -24.5 -151.5t-82 -144.5t-134 -144.5t-197.5 -166.5l-371 -305h653l-30 -180h-981z" />
<glyph unicode="3" d="M45 410h234q7 -127 81.5 -197t192.5 -70q126 0 207.5 69.5t81.5 186.5q0 103 -77 167t-214 65h-41l31 178h41q168 3 257 77.5t89 190.5q0 82 -54 137.5t-157 55.5q-97 0 -171 -62t-114 -190h-233q53 203 193.5 313.5t359.5 110.5q191 0 304 -95t113 -247 q0 -133 -89 -235.5t-244 -137.5q123 -38 185 -122.5t62 -196.5q0 -194 -154 -315.5t-405 -121.5q-219 0 -346 119.5t-133 319.5z" />
<glyph unicode="4" d="M23 305l26 148l834 960h237l-164 -928h177l-33 -180h-174l-56 -305h-223l53 305h-677zM301 485h432l127 658z" />
<glyph unicode="5" d="M68 387h235q6 -119 69.5 -181.5t176.5 -62.5q145 0 237.5 101t92.5 252q0 129 -67.5 200.5t-176.5 71.5q-185 0 -297 -182h-215l235 827h863l-33 -178h-676l-137 -455l102 105q110 55 225 55q201 0 309.5 -117.5t108.5 -300.5q0 -242 -165 -396.5t-418 -154.5 q-222 0 -341 104t-128 312z" />
<glyph unicode="6" d="M98 465q0 154 30.5 298t90.5 267t143 215.5t195 144.5t240 52q205 0 307 -94.5t117 -280.5h-234q-9 101 -60 152t-157 51q-139 0 -254.5 -142.5t-163.5 -392.5l107 133q69 46 134 65t150 19q122 0 215 -56.5t140 -148t47 -202.5q0 -118 -41.5 -223t-116 -183t-184 -123 t-238.5 -45q-212 0 -339.5 127.5t-127.5 366.5zM328 438q0 -143 67 -219t193 -76q133 0 224 106.5t91 260.5q0 118 -65 194t-181 76q-141 0 -235 -101.5t-94 -240.5z" />
<glyph unicode="7" d="M109 0l880 1235h-768l33 178h1038l-28 -153l-904 -1260h-251z" />
<glyph unicode="8" d="M55 324q0 139 90.5 249.5t253.5 155.5q-80 36 -131 111t-51 166q0 123 71.5 222.5t199.5 156.5t286 57q210 0 321 -98.5t111 -258.5q0 -114 -78 -213.5t-217 -142.5q88 -34 144.5 -120.5t56.5 -188.5q0 -91 -36.5 -171t-107 -143.5t-183.5 -100t-255 -36.5 q-138 0 -242.5 36.5t-168.5 118t-64 200.5zM297 354q0 -103 68.5 -158t187.5 -55q81 0 144.5 24t100 63t54.5 85t18 95q0 92 -62 159.5t-181 67.5q-70 0 -127 -18t-94 -46.5t-62 -66t-36 -75.5t-11 -75zM459 1010q0 -86 56.5 -144.5t154.5 -58.5q77 0 136.5 24t92.5 62.5 t49.5 81.5t16.5 86q0 91 -57 150t-158 59q-128 0 -209.5 -76t-81.5 -184z" />
<glyph unicode="9" d="M63 346h234q9 -101 60 -152t157 -51q139 0 254.5 142.5t161.5 392.5l-105 -133q-69 -46 -134.5 -65t-151.5 -19q-182 0 -292 118.5t-110 288.5q0 158 71 288.5t204.5 208t304.5 77.5q212 0 340.5 -127.5t128.5 -366.5q0 -154 -30.5 -298t-90.5 -267t-143 -215.5 t-195 -144.5t-240 -52q-205 0 -307 94.5t-117 280.5zM379 903q0 -119 65 -194.5t183 -75.5q141 0 234 101.5t93 240.5q0 143 -66 219t-192 76q-134 0 -225.5 -106.5t-91.5 -260.5z" />
<glyph unicode=":" horiz-adv-x="503" d="M-2 96q0 76 52 125t124 49q57 0 92 -34.5t35 -90.5q0 -75 -51.5 -124.5t-124.5 -49.5q-57 0 -92 34.5t-35 90.5zM150 942q0 76 51 125t123 49q57 0 92 -34.5t35 -90.5q0 -75 -52 -124.5t-125 -49.5q-57 0 -90.5 34.5t-33.5 90.5z" />
<glyph unicode=";" horiz-adv-x="503" d="M-186 -248l247 490h230l-4 -23l-277 -467h-196zM147 942q0 76 51.5 125t125.5 49q57 0 91 -34.5t34 -90.5q0 -75 -51.5 -124.5t-123.5 -49.5q-57 0 -92 34.5t-35 90.5z" />
<glyph unicode="&#x3c;" d="M197 457l30 174l926 399l-29 -174l-768 -319l656 -320l-29 -160z" />
<glyph unicode="=" d="M109 377l24 131h895l-22 -131h-897zM182 786l23 132h897l-23 -132h-897z" />
<glyph unicode="&#x3e;" d="M70 55l28 174l768 320l-655 319l29 162l788 -399l-31 -176z" />
<glyph unicode="?" horiz-adv-x="1232" d="M244 1001q32 205 177 323t361 118q186 0 294 -88t108 -230q0 -125 -64.5 -228t-228.5 -241q-94 -79 -137.5 -134.5t-65.5 -125.5h-207q19 88 61 151.5t154 172.5q146 142 197 224t51 165q0 77 -50.5 119.5t-139.5 42.5q-108 0 -182.5 -67.5t-96.5 -201.5h-231zM389 92 q0 74 52.5 126t125.5 52q57 0 91 -32.5t34 -85.5q0 -76 -52.5 -128.5t-125.5 -52.5q-57 0 -91 33.5t-34 87.5z" />
<glyph unicode="@" horiz-adv-x="1785" d="M100 502q0 196 74 363.5t196 278.5t279 173.5t324 62.5q155 0 285.5 -52.5t219 -144.5t138 -219.5t49.5 -275.5q0 -111 -25 -202.5t-67 -153t-99 -103t-119 -60.5t-128 -19q-93 0 -153 40.5t-77 122.5l-49 -96q-90 -76 -198 -76q-53 0 -101 17t-90.5 54t-68 104.5 t-25.5 158.5q0 137 53.5 255t153 190.5t221.5 72.5q119 0 174 -61l23 -105l36 129h203l-115 -473q-16 -76 -16 -106q0 -88 80 -88q97 0 166 102t69 289q0 135 -42 242.5t-116 176.5t-173 105.5t-215 36.5q-132 0 -259 -49.5t-229.5 -139.5t-165.5 -232t-63 -312 q0 -191 77 -327.5t209 -203.5t304 -67q130 0 262.5 40t236.5 116l56 -117q-259 -176 -568 -176q-111 0 -215 27t-197.5 85t-163 142t-110.5 206t-41 269zM692 489q0 -96 33 -140t88 -44q70 0 123.5 61t73.5 146l22 96q26 114 -6 167.5t-102 53.5q-103 0 -167.5 -101 t-64.5 -239z" />
<glyph unicode="A" horiz-adv-x="1353" d="M-49 0l756 1413h307l239 -1413h-243l-70 467h-502l-237 -467h-250zM530 645h381l-88 578z" />
<glyph unicode="B" horiz-adv-x="1318" d="M90 0l250 1413h477q115 0 176 -6q149 -15 233.5 -102.5t84.5 -217.5q0 -276 -305 -356q102 -39 153 -118t51 -187q0 -106 -53.5 -196.5t-158.5 -151t-246 -72.5q-82 -6 -148 -6h-514zM346 178h277q44 0 98 4q123 10 185.5 78.5t62.5 165.5q0 88 -44.5 137t-125.5 60 q-61 6 -107 6h-266zM459 809h270q72 0 109 4q106 13 168.5 79.5t62.5 156.5q0 161 -160 180q-35 4 -108 4h-269z" />
<glyph unicode="C" horiz-adv-x="1458" d="M115 547q0 80 14.5 165t46.5 173t78.5 168.5t114 151.5t148.5 123.5t187 83t226 30.5q135 0 236.5 -36t161.5 -100t90.5 -142.5t35.5 -174.5h-233q-8 129 -85 205t-229 76q-109 0 -201.5 -42.5t-156 -114t-108 -166t-65 -197t-20.5 -209.5q0 -188 95 -293t247 -105 q148 0 255 78.5t155 204.5h233q-176 -455 -669 -455q-265 0 -411 149.5t-146 426.5z" />
<glyph unicode="D" horiz-adv-x="1472" d="M90 0l250 1413h401q113 0 183 -6q108 -10 198.5 -52t160.5 -114.5t109.5 -184t39.5 -251.5q0 -115 -28.5 -223.5t-89 -207t-146.5 -175.5t-208.5 -128t-267.5 -65q-74 -6 -182 -6h-420zM346 180h195q106 0 153 6q101 14 184 54t140.5 98.5t96.5 133.5t57 157t18 172 q0 195 -88.5 301.5t-233.5 124.5q-60 8 -149 8h-187z" />
<glyph unicode="E" horiz-adv-x="1232" d="M90 0l250 1413h956l-32 -178h-732l-75 -438h673l-30 -179h-676l-78 -438h754l-33 -180h-977z" />
<glyph unicode="F" horiz-adv-x="1193" d="M90 0l250 1413h956l-32 -178h-732l-75 -438h673l-30 -179h-676l-109 -618h-225z" />
<glyph unicode="G" horiz-adv-x="1521" d="M119 563q0 133 33.5 260t103.5 239.5t168 197t236 133.5t298 49q254 0 391 -124.5t148 -330.5h-233q-9 128 -95.5 205.5t-240.5 77.5q-133 0 -242.5 -57.5t-179.5 -154t-108 -220.5t-38 -260q0 -111 29 -196t81 -136.5t118.5 -77t146.5 -25.5q161 0 285 104t164 273h-322 l31 180h541l-123 -700h-191l37 238l-90 -140q-144 -127 -389 -127q-252 0 -405.5 152.5t-153.5 439.5z" />
<glyph unicode="H" horiz-adv-x="1509" d="M90 0l250 1413h225l-112 -629h725l112 629h223l-249 -1413h-224l107 602h-725l-107 -602h-225z" />
<glyph unicode="I" horiz-adv-x="561" d="M90 0l250 1413h225l-250 -1413h-225z" />
<glyph unicode="J" horiz-adv-x="1134" d="M37 418h233q0 -128 54.5 -201.5t167.5 -73.5q199 0 256 224q16 65 32 159l156 887h225l-155 -876q-12 -67 -39 -191q-87 -375 -494 -375q-114 0 -199.5 35.5t-136.5 98t-75.5 141t-24.5 172.5z" />
<glyph unicode="K" horiz-adv-x="1333" d="M90 0l250 1413h225l-121 -678l773 678h272l-809 -700l532 -713h-274l-424 596l-111 -100l-88 -496h-225z" />
<glyph unicode="L" horiz-adv-x="1204" d="M90 0l250 1413h225l-217 -1227h752l-33 -186h-977z" />
<glyph unicode="M" horiz-adv-x="1798" d="M90 0l250 1413h369l155 -1177l566 1177h372l-250 -1413h-225l213 1186l-582 -1186h-274l-160 1202l-209 -1202h-225z" />
<glyph unicode="N" horiz-adv-x="1503" d="M90 0l250 1413h317l420 -1177l207 1177h223l-250 -1413h-323l-416 1167l-203 -1167h-225z" />
<glyph unicode="O" horiz-adv-x="1560" d="M125 584q0 136 32 262t98.5 234.5t160 189t225 126.5t285.5 46q142 0 256.5 -48t188 -132t112.5 -194.5t39 -238.5q0 -136 -32 -261.5t-98.5 -234.5t-160 -189.5t-225 -126.5t-285.5 -46q-142 0 -256.5 48t-188 132t-112.5 194.5t-39 238.5zM367 586q0 -200 102 -321.5 t283 -121.5q105 0 193.5 41.5t149 110.5t103.5 158.5t62.5 184.5t19.5 189q0 201 -102.5 322t-282.5 121q-105 0 -193.5 -41.5t-149 -110.5t-103.5 -158.5t-62.5 -184.5t-19.5 -189z" />
<glyph unicode="P" horiz-adv-x="1263" d="M90 0l250 1413h471q108 0 174 -6q137 -14 227.5 -111.5t90.5 -255.5q0 -119 -47.5 -219t-151.5 -170.5t-252 -85.5q-68 -8 -184 -8h-254l-99 -557h-225zM446 739h246q89 0 142 9q229 45 229 276q0 87 -40 137.5t-105 61.5q-44 8 -142 8h-244z" />
<glyph unicode="Q" horiz-adv-x="1568" d="M123 580q0 110 22.5 216t66 202t111 177t153 140.5t197 93t238.5 33.5q151 0 268.5 -47t190 -130t109.5 -191.5t37 -237.5q0 -203 -78 -380.5t-224 -283.5q108 -32 211 -127l-135 -149q-108 69 -161.5 91.5t-112.5 22.5q-74 0 -152 -22q-67 -17 -139 -17q-151 0 -268 47 t-189 131t-108.5 193t-36.5 238zM365 582q0 -201 99 -320t277 -119q107 0 197 42t150.5 111.5t103.5 160t62.5 185t19.5 189.5q0 200 -101 319.5t-278 119.5q-106 0 -195.5 -42t-150 -111.5t-103 -160t-62 -185t-19.5 -189.5z" />
<glyph unicode="R" horiz-adv-x="1312" d="M90 0l250 1413h444q127 0 193 -8q167 -17 256.5 -109t89.5 -252q0 -142 -92 -249t-254 -148q140 -56 143 -235q6 -254 51 -412h-235q-26 137 -31 342q-3 108 -43.5 158.5t-138.5 56.5q-29 2 -94 2h-215l-99 -559h-225zM444 737h230q92 0 129 4q90 8 154.5 50.5t94 102.5 t29.5 130q0 96 -51.5 147t-142.5 60q-35 2 -121 2h-234z" />
<glyph unicode="S" horiz-adv-x="1189" d="M10 410h234q11 -121 92 -194t215 -73q123 0 204 61.5t81 166.5q0 88 -65.5 144t-213.5 99q-87 25 -151.5 55.5t-118.5 76t-81.5 111t-27.5 149.5q0 189 144.5 312.5t384.5 123.5q114 0 203 -34.5t143 -94.5t81.5 -136t28.5 -165h-233q-5 122 -69 190t-177 68 q-114 0 -189 -63.5t-75 -172.5q0 -91 58 -138.5t196 -88.5q202 -59 302.5 -155.5t100.5 -250.5q0 -191 -147.5 -310.5t-401.5 -119.5q-234 0 -366.5 116t-151.5 323z" />
<glyph unicode="T" horiz-adv-x="1265" d="M182 1235l33 178h1208l-32 -178h-492l-217 -1235h-225l219 1235h-494z" />
<glyph unicode="U" horiz-adv-x="1417" d="M164 371q0 76 22 202l148 840h225l-151 -860q-19 -111 -19 -164q0 -116 72.5 -181t208.5 -65q152 0 241.5 67t130.5 218q16 64 25 115l152 870h225l-152 -856q-15 -85 -30 -149q-106 -437 -617 -437q-238 0 -359.5 105t-121.5 295z" />
<glyph unicode="V" horiz-adv-x="1382" d="M219 1413h244l180 -1241l629 1241h250l-756 -1413h-307z" />
<glyph unicode="W" horiz-adv-x="1984" d="M207 1413h242l65 -1204l490 1184h319l68 -1192l493 1212h248l-633 -1413h-297l-76 1186l-501 -1186h-299z" />
<glyph unicode="X" horiz-adv-x="1323" d="M-70 0l635 723l-350 690h252l262 -543l455 543h264l-621 -698l396 -715h-267l-290 567l-469 -567h-267z" />
<glyph unicode="Y" horiz-adv-x="1243" d="M195 1413h239l254 -663l473 663h256l-653 -870l-94 -543h-226l99 553z" />
<glyph unicode="Z" horiz-adv-x="1239" d="M2 0l31 172l989 1063h-746l33 178h1024l-30 -176l-986 -1057h809l-32 -180h-1092z" />
<glyph unicode="[" horiz-adv-x="681" d="M49 -164l311 1761h390l-23 -135h-250l-264 -1491h250l-25 -135h-389z" />
<glyph unicode="\" horiz-adv-x="643" d="M147 1475h148l244 -1536h-148z" />
<glyph unicode="]" horiz-adv-x="681" d="M-41 -164l25 135h249l265 1491h-250l24 135h390l-312 -1761h-391z" />
<glyph unicode="^" d="M113 440l499 822h166l213 -822h-160l-155 686l-397 -686h-166z" />
<glyph unicode="_" horiz-adv-x="1024" d="M90 -178l25 135h819l-25 -135h-819z" />
<glyph unicode="`" horiz-adv-x="614" d="M68 1415h204l99 -233h-135z" />
<glyph unicode="a" horiz-adv-x="1079" d="M25 254q0 145 96 242.5t262 137.5q121 29 269 29q56 0 116 -4l4 23q14 92 14 131q0 63 -37 101t-118 38q-116 0 -178 -52t-86 -157l-226 -2q35 177 170 276t332 99q189 0 279 -74.5t90 -203.5q0 -55 -21 -181l-67 -381q-22 -126 -29 -276h-223l8 158l-76 -105 q-95 -82 -280 -82q-126 0 -212.5 73t-86.5 210zM264 281q0 -70 45 -108t121 -38q96 0 183 77.5t110 193.5l18 104q-58 7 -112 7q-67 0 -127 -11q-106 -19 -172 -77t-66 -148z" />
<glyph unicode="b" horiz-adv-x="1290" d="M47 0l266 1505h226l-105 -587l103 116q52 38 130.5 60t161.5 22q199 0 305.5 -120t106.5 -320q0 -105 -24.5 -205.5t-77 -191.5t-126.5 -159t-181 -108.5t-234 -40.5q-69 0 -140.5 23t-105.5 59l-51 111l-29 -164h-225zM355 364q10 -66 36.5 -117t82.5 -81.5t132 -30.5 q120 0 211.5 76t136.5 193t45 251q0 138 -62 217.5t-181 79.5q-66 0 -124.5 -21.5t-111 -67t-92 -124.5t-57.5 -184v6v-6l-11 -57l-2 -4l2 6q-9 -42 -9 -83q0 -27 4 -53z" />
<glyph unicode="c" horiz-adv-x="1126" d="M49 410q0 139 43.5 265.5t122.5 224.5t200.5 156t268.5 58q204 0 307 -108.5t105 -296.5h-228q-9 241 -215 241q-158 0 -260 -151t-102 -385q0 -139 60 -209t157 -70q103 0 182 58t121 167h229q-79 -197 -215.5 -293t-343.5 -96q-195 0 -313.5 112.5t-118.5 326.5z" />
<glyph unicode="d" horiz-adv-x="1288" d="M49 412q0 105 24.5 205.5t77.5 191t127.5 159t181.5 108.5t234 40q69 0 140 -22.5t106 -57.5l51 -110l103 579h223l-266 -1505h-224l29 170l-102 -117q-51 -37 -130.5 -59.5t-162.5 -22.5q-197 0 -304.5 121t-107.5 320zM291 432q0 -138 63.5 -217.5t182.5 -79.5 q65 0 124 22t111.5 67.5t92 124t57.5 183.5l10 58q8 46 8 87q0 47 -10 89q-18 80 -81 133t-165 53q-119 0 -210.5 -76t-137 -193t-45.5 -251z" />
<glyph unicode="e" horiz-adv-x="1142" d="M49 406q0 105 23.5 205.5t74 192t122 161t174.5 110.5t225 41q205 0 318.5 -114t113.5 -302q0 -110 -33 -219h-778q-2 -25 -2 -71q0 -139 61 -207t164 -68q100 0 180 58t113 159h229q-64 -187 -212.5 -284t-338.5 -97q-196 0 -315 112.5t-119 322.5zM315 639h553 q4 46 4 61q0 120 -61 186t-170 66q-127 0 -209 -87t-117 -226z" />
<glyph unicode="f" horiz-adv-x="598" d="M61 0l162 922h-98l29 157h96l12 70q15 78 31 129q38 130 124 198t210 68q109 0 170 -12l-31 -168q-36 8 -76 8q-136 0 -174 -106q-21 -66 -29 -105l-14 -82h223l-26 -157h-224l-161 -922h-224z" />
<glyph unicode="g" horiz-adv-x="1290" d="M-16 -96h227q18 -101 83.5 -144t178.5 -43q139 0 231.5 82t129.5 238l24 121l2 18l-100 -117q-55 -37 -134 -59.5t-161 -22.5q-197 0 -305.5 123t-108.5 322q0 105 25 204.5t78 188.5t128 156t182.5 106t233.5 39q69 0 140 -22.5t106 -57.5l49 -110l29 161h223l-145 -821 q-10 -70 -39 -211q-54 -262 -208 -384t-404 -122q-210 0 -324 83.5t-141 271.5zM293 432q0 -132 63.5 -210.5t182.5 -78.5q66 0 125.5 21.5t112 65.5t92 121.5t57.5 180.5l8 58q8 47 8 90q0 46 -9 87q-18 80 -80.5 132.5t-164.5 52.5q-119 0 -211 -75t-138 -192.5 t-46 -252.5z" />
<glyph unicode="h" horiz-adv-x="1243" d="M47 0l266 1516h226l-107 -605l96 121q70 47 137.5 65.5t151.5 18.5q163 0 247.5 -74t84.5 -204q0 -80 -27 -222l-110 -616h-224l105 586q22 121 22 184q0 180 -188 180h-6q-129 -3 -225.5 -114t-139.5 -351l-84 -485h-225z" />
<glyph unicode="i" horiz-adv-x="509" d="M47 0l193 1087h225l-193 -1087h-225zM264 1315q0 65 45.5 108t112.5 43q51 0 82 -30t31 -78q0 -65 -45.5 -108.5t-112.5 -43.5q-51 0 -82 30.5t-31 78.5z" />
<glyph unicode="j" horiz-adv-x="450" d="M-236 -426l31 170q22 -3 41 -3q117 0 146 95q8 24 26 111l201 1140h223l-201 -1150q-20 -102 -28 -132q-32 -117 -114 -176t-232 -59q-64 0 -93 4zM227 1311q0 64 46.5 107.5t111.5 43.5q51 0 82 -30t31 -78q0 -64 -46.5 -109t-111.5 -45q-50 0 -81.5 31.5t-31.5 79.5z " />
<glyph unicode="k" horiz-adv-x="1124" d="M47 0l266 1505h226l-166 -934l567 516h277l-586 -512l409 -575h-270l-309 459l-129 -113l-60 -346h-225z" />
<glyph unicode="l" horiz-adv-x="538" d="M70 131q0 53 26 195l209 1179h223l-206 -1173q-15 -80 -15 -107q-1 -50 25 -64q19 -10 59 -10q14 0 31 1l-27 -154q-75 -10 -143 -10q-92 0 -137 32t-45 111z" />
<glyph unicode="m" horiz-adv-x="1808" d="M47 0l191 1087h225l-29 -157l96 123q100 63 244 63q123 0 195 -54.5t90 -146.5l117 134q96 67 247 67q146 0 221.5 -73.5t75.5 -190.5q0 -60 -24 -195l-115 -657h-225l102 575q25 161 25 211q0 81 -42.5 121.5t-123.5 40.5q-98 0 -180.5 -109.5t-114.5 -291.5l-96 -547 h-224l101 575q26 149 26 211q0 162 -170 162q-98 0 -178 -108.5t-112 -292.5l-97 -547h-225z" />
<glyph unicode="n" horiz-adv-x="1243" d="M47 0l191 1087h225l-31 -176l96 121q70 47 137.5 65.5t151.5 18.5q163 0 247.5 -74t84.5 -204q0 -80 -27 -222l-110 -616h-224l105 586q22 121 22 184q0 180 -188 180h-6q-129 -3 -225.5 -114t-139.5 -351l-84 -485h-225z" />
<glyph unicode="o" d="M55 453q0 95 23.5 187t74.5 178.5t124 152.5t180.5 105.5t236.5 39.5q123 0 218 -38.5t151.5 -106t84.5 -152t28 -184.5q0 -95 -23.5 -187.5t-74 -179t-123.5 -152.5t-180.5 -105.5t-235.5 -39.5q-124 0 -219 38.5t-152 106t-85 152.5t-28 185zM297 459q0 -143 67 -233.5 t197 -90.5q89 0 162 43.5t118 115.5t69 159t24 178q0 142 -66.5 231.5t-197.5 89.5q-89 0 -161.5 -43t-117.5 -114.5t-69.5 -158t-24.5 -177.5z" />
<glyph unicode="p" horiz-adv-x="1290" d="M-25 -401l265 1488h225l-31 -169l103 116q53 37 131.5 59.5t160.5 22.5q199 0 305.5 -120t106.5 -320q0 -105 -24.5 -205.5t-77 -191.5t-126.5 -159t-181 -108.5t-234 -40.5q-69 0 -140 22.5t-106 57.5l-51 113l-100 -565h-226zM355 362q10 -65 36.5 -115.5t82.5 -81 t132 -30.5q120 0 211.5 76t136.5 193t45 251q0 138 -62 217.5t-181 79.5q-65 0 -124 -22t-111.5 -67.5t-92 -124t-57.5 -183.5l-11 -57q-9 -42 -9 -82q0 -27 4 -54z" />
<glyph unicode="q" horiz-adv-x="1288" d="M49 412q0 105 24.5 205.5t77.5 191t127.5 159t181.5 108.5t234 40q69 0 140 -22.5t106 -57.5l51 -112l29 163h225l-266 -1488h-223l100 571l-102 -117q-51 -37 -130.5 -59.5t-162.5 -22.5q-197 0 -304.5 121t-107.5 320zM291 432q0 -138 63.5 -217.5t182.5 -79.5 q65 0 124 22t111.5 67.5t92 124t57.5 183.5l10 58q8 46 8 87q0 47 -10 89q-18 80 -81 133t-165 53q-119 0 -210.5 -76t-137 -193t-45.5 -251z" />
<glyph unicode="r" horiz-adv-x="712" d="M47 0l193 1085h223l-33 -182l121 150q86 61 178 61q44 0 74 -12l-31 -176q-17 1 -34 1q-52 0 -100 -12q-62 -16 -116.5 -57t-93 -115t-57.5 -178l-99 -565h-225z" />
<glyph unicode="s" horiz-adv-x="956" d="M-23 313h230q19 -194 221 -194q85 0 140 43.5t55 116.5q0 66 -50.5 109t-173.5 83q-70 22 -119 45t-92 58.5t-64.5 87t-21.5 118.5q0 143 112.5 238.5t317.5 95.5q193 0 288 -91.5t100 -248.5h-228q-13 182 -168 182q-91 0 -136.5 -42.5t-45.5 -106.5q0 -67 48 -106 t155 -72q164 -51 240.5 -126.5t76.5 -203.5q0 -151 -121 -245.5t-325 -94.5q-110 0 -195 28.5t-136 79t-77.5 112t-30.5 134.5z" />
<glyph unicode="t" horiz-adv-x="667" d="M88 922l29 157h147l47 260h224l-46 -260h199l-29 -157h-198l-101 -570q-14 -79 -14 -116q0 -60 43 -78q24 -10 65 -10q32 0 74 6l-28 -154q-82 -20 -162 -20q-116 0 -171.5 41.5t-55.5 130.5q0 54 22 180l105 590h-150z" />
<glyph unicode="u" horiz-adv-x="1234" d="M86 250q0 79 27 223l110 614h226l-107 -585q-23 -124 -23 -185q-1 -85 47 -133q45 -46 137 -45h11q62 1 116 26t103 78t87 144t59 215l86 485h223l-191 -1087h-225l31 176l-96 -121q-71 -48 -137 -66t-152 -18q-162 0 -247 75t-85 204z" />
<glyph unicode="v" horiz-adv-x="1058" d="M70 1087h254l137 -907l459 907h251l-608 -1087h-270z" />
<glyph unicode="w" horiz-adv-x="1599" d="M70 1087h254l69 -876l359 874h278l62 -876l378 878h244l-538 -1087h-261l-61 877l-369 -877h-262z" />
<glyph unicode="x" horiz-adv-x="1024" d="M-113 0l484 543l-273 544h264l170 -391l322 391h264l-487 -544l295 -543h-264l-191 387l-321 -387h-263z" />
<glyph unicode="y" horiz-adv-x="1058" d="M-53 -422l26 168q36 -8 74 -8q79 0 135 39t107 135l16 31l-235 1144h254l137 -913l459 913h251l-608 -1087q-139 -249 -246.5 -339.5t-267.5 -90.5q-61 0 -102 8z" />
<glyph unicode="z" horiz-adv-x="1005" d="M-39 0l27 156l743 762h-563l29 161h829l-29 -161l-739 -756h619l-29 -162h-887z" />
<glyph unicode="{" horiz-adv-x="686" d="M160 649l24 135q51 5 83.5 15t59.5 32.5t41 62.5t21 101.5t6 151.5q-2 181 28 276.5t100 134.5t204 39h43l-22 -135h-31q-56 0 -88 -9.5t-55 -41t-31 -89t-6 -155.5q2 -97 -8 -170t-35.5 -134t-73.5 -98.5t-117 -49.5q146 -22 146 -158q0 -101 -72 -291 q-39 -105 -51.5 -147.5t-12.5 -73.5q0 -38 33.5 -56t108.5 -18h28l-24 -135h-43q-122 0 -184 45t-62 144q0 44 13.5 91.5t60.5 170.5q61 163 61 250q0 101 -145 112z" />
<glyph unicode="|" horiz-adv-x="555" d="M20 -410l361 2048h149l-360 -2048h-150z" />
<glyph unicode="}" horiz-adv-x="686" d="M-39 -164l25 135h28q57 0 89.5 9.5t56 41t31.5 89t6 155.5q-2 97 7.5 170t34.5 134.5t73 99t118 49.5q-147 21 -147 158q0 97 73 290q40 107 52 149t12 73q0 38 -33 55.5t-108 17.5h-29l22 135h43q122 0 185 -45t63 -143q0 -44 -13.5 -91.5t-60.5 -170.5 q-61 -163 -61 -250q0 -102 143 -113l-22 -135q-64 -6 -101 -20.5t-64.5 -53.5t-37.5 -107.5t-8 -180.5q2 -137 -13 -221.5t-55 -137t-102.5 -72.5t-163.5 -20h-43z" />
<glyph unicode="~" d="M123 457q50 299 289 299q58 0 101 -17.5t126 -66.5q48 -28 69.5 -39.5t52 -22t56.5 -10.5q53 0 82 38t45 118h135q-53 -299 -291 -299q-39 0 -77 11.5t-64 24.5t-86 48q-61 37 -101 54t-77 17q-54 0 -82.5 -38.5t-42.5 -116.5h-135z" />
<glyph unicode="&#xa1;" horiz-adv-x="542" d="M-35 -326l232 1020h190l-180 -1020h-242zM186 938q0 74 53 126t126 52q56 0 90 -33t34 -86q0 -75 -52.5 -127.5t-123.5 -52.5q-58 0 -92.5 33.5t-34.5 87.5z" />
<glyph unicode="&#xa2;" d="M68 410q0 130 38 250t107.5 215t177 158t238.5 77l28 160h140l-27 -160q172 -17 259 -123.5t87 -279.5h-227q-6 200 -150 235l-141 -799q78 17 137 72t94 145h230q-73 -180 -193.5 -276t-298.5 -111l-26 -157h-142l29 159q-166 19 -263 130t-97 305zM309 414 q0 -111 40.5 -178.5t109.5 -90.5l139 795q-130 -34 -209.5 -178t-79.5 -348z" />
<glyph unicode="&#xa3;" horiz-adv-x="1214" d="M-16 0l28 160q64 14 114 43t80 64.5t50 79.5t27.5 84t7.5 81q0 46 -17 123h-159l22 131h99q-29 114 -29 219q0 89 33 170t94.5 145.5t160 103t218.5 38.5q387 0 413 -410h-233q-6 120 -56 179t-151 59q-106 0 -173 -78.5t-67 -198.5q0 -99 41 -227h433l-23 -131h-383 q8 -44 8 -92q0 -122 -53 -211.5t-178 -151.5h733l-31 -180h-1009z" />
<glyph unicode="&#xa4;" d="M137 297l139 119q-38 74 -38 166q0 140 94 260l-88 108l104 88l92 -106q92 53 213 53q113 0 197 -74l143 121l76 -92l-143 -123q41 -80 41 -166q0 -141 -97 -258l91 -110l-103 -86l-92 108q-96 -57 -217 -57q-116 0 -199 74l-137 -117zM383 592q0 -94 51.5 -150.5 t134.5 -56.5q113 0 181.5 78t68.5 176q0 95 -52.5 152t-135.5 57q-113 0 -180.5 -78t-67.5 -178z" />
<glyph unicode="&#xa5;" d="M100 346l23 135h326l20 115l-4 12h-320l25 135h246l-250 670h254l196 -661l437 661h247l-493 -670h237l-22 -135h-313l-17 -22l-18 -105h325l-24 -135h-326l-61 -346h-223l61 346h-326z" />
<glyph unicode="&#xa6;" horiz-adv-x="546" d="M35 -328l123 697h141l-123 -697h-141zM219 717l123 696h141l-123 -696h-141z" />
<glyph unicode="&#xa7;" horiz-adv-x="1200" d="M37 2h229q9 -99 67.5 -150t139.5 -51q99 0 156 45.5t57 135.5q0 80 -59.5 132t-214.5 107q-82 30 -139.5 61t-104.5 73.5t-70.5 98t-23.5 126.5q0 105 66.5 195.5t195.5 137.5q-45 76 -45 174q0 65 28 127t79.5 113.5t135.5 83t187 31.5q171 0 270.5 -92.5t114.5 -253.5 h-229q-8 90 -53.5 139t-123.5 49q-75 0 -122.5 -52t-47.5 -136q0 -72 56 -122t178 -85q188 -56 278.5 -147.5t90.5 -229.5q0 -107 -69 -197t-194 -133q56 -77 56 -180q0 -162 -133.5 -260t-343.5 -98q-81 0 -151 22t-126.5 64.5t-92 112t-42.5 159.5zM313 602q0 -74 57 -123 t171 -90q116 -43 180 -80q81 12 126.5 63t45.5 124q0 75 -58.5 124t-189.5 93q-94 31 -168 73q-82 -18 -123 -67.5t-41 -116.5z" />
<glyph unicode="&#xa8;" horiz-adv-x="614" d="M29 1280q0 51 39 87t90 36q40 0 66 -26t26 -66q0 -51 -39 -87t-90 -36q-41 0 -66.5 26t-25.5 66zM354 1278q0 51 39 88t90 37q41 0 68 -26t27 -64q0 -52 -38.5 -88.5t-90.5 -36.5q-41 0 -68 26t-27 64z" />
<glyph unicode="&#xa9;" horiz-adv-x="1728" d="M63 727q0 169 61.5 319t168 256.5t255 168t316.5 61.5t316.5 -61.5t255 -168t168 -256.5t61.5 -319t-61.5 -319t-168 -256.5t-255 -168t-316.5 -61.5t-316.5 61.5t-255 168t-168 256.5t-61.5 319zM215 727q0 -188 84.5 -340.5t233 -239t331.5 -86.5q182 0 330.5 86.5 t233.5 239t85 340.5q0 140 -50 263.5t-136 212t-206.5 139.5t-256.5 51q-183 0 -331.5 -87t-233 -239.5t-84.5 -339.5zM428 725q0 217 123.5 345t327.5 128q171 0 277.5 -93t133.5 -251h-217q-28 188 -199 188q-107 0 -163 -83.5t-56 -229.5q0 -148 60 -232.5t162 -84.5 q79 0 131 51t63 135h217q-34 -160 -140 -251t-288 -91q-192 0 -312 128t-120 341z" />
<glyph unicode="&#xab;" horiz-adv-x="1173" d="M231 508l340 340h199l-356 -356l211 -324h-172zM600 508l340 340h199l-357 -356l211 -324h-172z" />
<glyph unicode="&#xac;" d="M190 659l25 136h776l-65 -383h-142l43 247h-637z" />
<glyph unicode="&#xad;" horiz-adv-x="581" d="M53 512l25 135h450l-24 -135h-451z" />
<glyph unicode="&#xae;" horiz-adv-x="1030" d="M72 1087q0 126 58.5 234t173 176t261.5 68q181 0 288.5 -109t107.5 -274q0 -94 -35 -180t-97 -152t-156.5 -105.5t-205.5 -39.5q-181 0 -288 108.5t-107 273.5zM176 1087q0 -127 82.5 -204.5t226.5 -77.5q169 0 270 108.5t101 268.5q0 127 -82.5 205.5t-224.5 78.5 q-171 0 -272 -109.5t-101 -269.5zM324 932l73 422h142q37 0 53 -2q57 -6 88 -36t31 -77q0 -40 -26 -71t-77 -44q54 -15 51 -82q-4 -61 17 -110h-121q-10 55 -8 98q0 41 -49 41h-43l-25 -139h-106zM469 1159h37q25 0 37 2q25 3 40 18.5t15 39.5q0 40 -39 47q-14 2 -35 2h-37z " />
<glyph unicode="&#xaf;" horiz-adv-x="614" d="M35 1227l22 129h523l-23 -129h-522z" />
<glyph unicode="&#xb0;" horiz-adv-x="628" d="M184 1249q0 123 79 204t210 81q106 0 170 -62t64 -157q0 -122 -79.5 -203.5t-209.5 -81.5q-105 0 -169.5 62.5t-64.5 156.5zM330 1262q0 -48 28 -74.5t72 -26.5q57 0 94 38t37 104q0 49 -27.5 74.5t-72.5 25.5q-58 0 -94.5 -37t-36.5 -104z" />
<glyph unicode="&#xb1;" d="M80 0l22 131h850l-22 -131h-850zM182 586l25 135h354l60 342h141l-62 -342h357l-25 -135h-356l-62 -350h-139l62 350h-355z" />
<glyph unicode="&#xb4;" horiz-adv-x="614" d="M207 1182l182 233h205l-252 -233h-135z" />
<glyph unicode="&#xb6;" horiz-adv-x="1175" d="M160 983q0 54 14 110t45 111.5t76 99.5t112.5 73t147.5 34q37 2 117 2h516l-291 -1638h-141l266 1503h-199l-266 -1503h-141l157 880h-36q-80 0 -115 2q-83 5 -144 54t-89.5 119.5t-28.5 152.5z" />
<glyph unicode="&#xb7;" horiz-adv-x="454" d="M82 596q0 76 57 131t131 55q59 0 95 -36t36 -91q0 -77 -56 -132.5t-130 -55.5q-59 0 -96 36.5t-37 92.5z" />
<glyph unicode="&#xb8;" horiz-adv-x="614" d="M57 -414l21 99q39 -15 106 -15q69 0 105.5 23.5t36.5 64.5q0 44 -49 65t-134 11l127 184h127l-73 -102q72 -12 109.5 -51.5t37.5 -97.5q0 -98 -80.5 -147.5t-206.5 -49.5q-77 0 -127 16z" />
<glyph unicode="&#xbb;" horiz-adv-x="1179" d="M20 168l357 356l-211 324h174l221 -340l-340 -340h-201zM389 168l356 356l-210 324h174l221 -340l-340 -340h-201z" />
<glyph unicode="&#xbf;" horiz-adv-x="1110" d="M18 -37q0 124 65 227t228 242q95 82 138 137.5t65 124.5h207q-17 -88 -59 -151t-154 -172q-148 -143 -199 -225.5t-51 -165.5q0 -77 51.5 -119.5t139.5 -42.5q107 0 181.5 66.5t98.5 201.5h229q-32 -205 -177 -322.5t-361 -117.5q-186 0 -294 87.5t-108 229.5zM510 938 q0 74 52.5 126t125.5 52q57 0 92 -33t35 -86q0 -75 -53 -127.5t-125 -52.5q-58 0 -92.5 33.5t-34.5 87.5z" />
<glyph unicode="&#xc0;" horiz-adv-x="1353" d="M-49 0l756 1413h307l239 -1413h-243l-70 467h-502l-237 -467h-250zM530 645h381l-88 578zM666 1716h204l95 -209h-136z" />
<glyph unicode="&#xc1;" horiz-adv-x="1353" d="M-49 0l756 1413h307l239 -1413h-243l-70 467h-502l-237 -467h-250zM530 645h381l-88 578zM807 1507l164 209h205l-234 -209h-135z" />
<glyph unicode="&#xc2;" horiz-adv-x="1353" d="M-49 0l756 1413h307l239 -1413h-243l-70 467h-502l-237 -467h-250zM530 645h381l-88 578zM668 1507l170 209h168l98 -209h-156l-43 121l-84 -121h-153z" />
<glyph unicode="&#xc3;" horiz-adv-x="1353" d="M-49 0l756 1413h307l239 -1413h-243l-70 467h-502l-237 -467h-250zM530 645h381l-88 578zM641 1532q18 97 54.5 137.5t99.5 40.5q53 0 133 -31q63 -24 88 -24q17 0 27 10.5t16 36.5h106q-18 -98 -54 -138t-99 -40q-53 0 -133 30q-63 25 -88 25q-33 0 -41 -47h-109z" />
<glyph unicode="&#xc4;" horiz-adv-x="1353" d="M-49 0l756 1413h307l239 -1413h-243l-70 467h-502l-237 -467h-250zM530 645h381l-88 578zM633 1593q0 49 40.5 87t88.5 38q41 0 66.5 -26t25.5 -66q0 -49 -40.5 -87t-88.5 -38q-41 0 -66.5 26.5t-25.5 65.5zM950 1593q0 49 40.5 87t88.5 38q41 0 66.5 -26t25.5 -66 q0 -49 -40.5 -87t-88.5 -38q-41 0 -66.5 26.5t-25.5 65.5z" />
<glyph unicode="&#xc5;" horiz-adv-x="1353" d="M-49 0l756 1413h307l239 -1413h-243l-70 467h-502l-237 -467h-250zM530 645h381l-88 578zM707 1620q0 91 65 146t162 55q81 0 129.5 -43t48.5 -109q0 -91 -65 -145t-162 -54q-82 0 -130 42t-48 108zM825 1628q0 -31 18.5 -50t49.5 -19q41 0 70.5 28t29.5 74 q0 31 -18.5 50.5t-48.5 19.5q-42 0 -71.5 -28t-29.5 -75z" />
<glyph unicode="&#xc6;" horiz-adv-x="1937" d="M-168 0l1061 1413h1108l-33 -178h-770l-43 -438h680l-31 -179h-667l-45 -438h712l-32 -180h-922l51 481h-452l-353 -481h-264zM580 662h340l57 540z" />
<glyph unicode="&#xc7;" horiz-adv-x="1458" d="M115 547q0 80 14.5 165t46.5 173t78.5 168.5t114 151.5t148.5 123.5t187 83t226 30.5q135 0 236.5 -36t161.5 -100t90.5 -142.5t35.5 -174.5h-233q-8 129 -85 205t-229 76q-109 0 -201.5 -42.5t-156 -114t-108 -166t-65 -198t-20.5 -210.5q0 -188 94.5 -292t247.5 -104 q148 0 255 78t155 205h233q-172 -452 -663 -455l-41 -55q72 -12 109.5 -51.5t37.5 -97.5q0 -98 -79.5 -147.5t-204.5 -49.5q-81 0 -127 16l18 99q39 -15 107 -15q69 0 106 23.5t37 64.5q0 44 -49.5 65t-134.5 11l100 146q-214 31 -328 176t-114 391z" />
<glyph unicode="&#xc8;" horiz-adv-x="1232" d="M90 0l250 1413h956l-32 -178h-732l-75 -438h673l-30 -179h-676l-78 -438h754l-33 -180h-977zM635 1716h205l94 -209h-135z" />
<glyph unicode="&#xc9;" horiz-adv-x="1232" d="M90 0l250 1413h956l-32 -178h-732l-75 -438h673l-30 -179h-676l-78 -438h754l-33 -180h-977zM774 1507l166 209h205l-236 -209h-135z" />
<glyph unicode="&#xca;" horiz-adv-x="1232" d="M90 0l250 1413h956l-32 -178h-732l-75 -438h673l-30 -179h-676l-78 -438h754l-33 -180h-977zM635 1507l172 209h166l98 -209h-156l-41 121l-83 -121h-156z" />
<glyph unicode="&#xcb;" horiz-adv-x="1232" d="M90 0l250 1413h956l-32 -178h-732l-75 -438h673l-30 -179h-676l-78 -438h754l-33 -180h-977zM600 1593q0 49 40.5 87t90.5 38q40 0 66 -26t26 -66q0 -49 -40.5 -87t-90.5 -38q-39 0 -65.5 26.5t-26.5 65.5zM918 1593q0 49 40.5 87t90.5 38q40 0 66 -26t26 -66 q0 -49 -40.5 -87t-90.5 -38q-39 0 -65.5 26.5t-26.5 65.5z" />
<glyph unicode="&#xcc;" horiz-adv-x="561" d="M90 0l250 1413h225l-250 -1413h-225zM252 1716h205l92 -209h-135z" />
<glyph unicode="&#xcd;" horiz-adv-x="561" d="M90 0l250 1413h225l-250 -1413h-225zM391 1507l166 209h205l-236 -209h-135z" />
<glyph unicode="&#xce;" horiz-adv-x="561" d="M90 0l250 1413h225l-250 -1413h-225zM252 1507l170 209h168l98 -209h-156l-43 121l-83 -121h-154z" />
<glyph unicode="&#xcf;" horiz-adv-x="561" d="M90 0l250 1413h225l-250 -1413h-225zM217 1593q0 49 40.5 87t90.5 38q40 0 66 -26t26 -66q0 -49 -40.5 -87t-90.5 -38q-39 0 -65.5 26.5t-26.5 65.5zM535 1593q0 49 40.5 87t90.5 38q40 0 66 -26t26 -66q0 -49 -40.5 -87t-90.5 -38q-39 0 -65.5 26.5t-26.5 65.5z" />
<glyph unicode="&#xd0;" horiz-adv-x="1472" d="M25 618l22 136h176l117 659h401q113 0 183 -6q108 -10 198.5 -52t160.5 -114.5t109.5 -184t39.5 -251.5q0 -115 -28.5 -223.5t-89 -207t-146.5 -175.5t-208.5 -128t-267.5 -65q-74 -6 -182 -6h-420l111 618h-176zM346 180h195q106 0 153 6q101 14 184 54t140.5 98.5 t96.5 133.5t57 157t18 172q0 195 -88.5 301.5t-233.5 124.5q-60 8 -149 8h-187l-83 -481h239l-22 -136h-242z" />
<glyph unicode="&#xd1;" horiz-adv-x="1503" d="M90 0l250 1413h317l420 -1177l207 1177h223l-250 -1413h-323l-416 1167l-203 -1167h-225zM700 1532q18 97 54.5 137.5t99.5 40.5q53 0 133 -31q63 -24 88 -24q33 0 41 47h109q-18 -97 -54.5 -137.5t-99.5 -40.5q-53 0 -133 30q-65 25 -88 25q-32 0 -43 -47h-107z" />
<glyph unicode="&#xd2;" horiz-adv-x="1560" d="M125 584q0 136 32 262t98.5 234.5t160 189t225 126.5t285.5 46q142 0 256.5 -48t188 -132t112.5 -194.5t39 -238.5q0 -136 -32 -261.5t-98.5 -234.5t-160 -189.5t-225 -126.5t-285.5 -46q-142 0 -256.5 48t-188 132t-112.5 194.5t-39 238.5zM367 586q0 -200 102 -321.5 t283 -121.5q105 0 193.5 41.5t149 110.5t103.5 158.5t62.5 184.5t19.5 189q0 201 -102.5 322t-282.5 121q-105 0 -193.5 -41.5t-149 -110.5t-103.5 -158.5t-62.5 -184.5t-19.5 -189zM739 1716h205l94 -209h-135z" />
<glyph unicode="&#xd3;" horiz-adv-x="1560" d="M125 584q0 136 32 262t98.5 234.5t160 189t225 126.5t285.5 46q142 0 256.5 -48t188 -132t112.5 -194.5t39 -238.5q0 -136 -32 -261.5t-98.5 -234.5t-160 -189.5t-225 -126.5t-285.5 -46q-142 0 -256.5 48t-188 132t-112.5 194.5t-39 238.5zM367 586q0 -200 102 -321.5 t283 -121.5q105 0 193.5 41.5t149 110.5t103.5 158.5t62.5 184.5t19.5 189q0 201 -102.5 322t-282.5 121q-105 0 -193.5 -41.5t-149 -110.5t-103.5 -158.5t-62.5 -184.5t-19.5 -189zM879 1507l165 209h205l-235 -209h-135z" />
<glyph unicode="&#xd4;" horiz-adv-x="1560" d="M125 584q0 136 32 262t98.5 234.5t160 189t225 126.5t285.5 46q142 0 256.5 -48t188 -132t112.5 -194.5t39 -238.5q0 -136 -32 -261.5t-98.5 -234.5t-160 -189.5t-225 -126.5t-285.5 -46q-142 0 -256.5 48t-188 132t-112.5 194.5t-39 238.5zM367 586q0 -200 102 -321.5 t283 -121.5q105 0 193.5 41.5t149 110.5t103.5 158.5t62.5 184.5t19.5 189q0 201 -102.5 322t-282.5 121q-105 0 -193.5 -41.5t-149 -110.5t-103.5 -158.5t-62.5 -184.5t-19.5 -189zM741 1507l170 209h166l101 -209h-158l-41 121l-84 -121h-154z" />
<glyph unicode="&#xd5;" horiz-adv-x="1560" d="M125 584q0 136 32 262t98.5 234.5t160 189t225 126.5t285.5 46q142 0 256.5 -48t188 -132t112.5 -194.5t39 -238.5q0 -136 -32 -261.5t-98.5 -234.5t-160 -189.5t-225 -126.5t-285.5 -46q-142 0 -256.5 48t-188 132t-112.5 194.5t-39 238.5zM367 586q0 -200 102 -321.5 t283 -121.5q105 0 193.5 41.5t149 110.5t103.5 158.5t62.5 184.5t19.5 189q0 201 -102.5 322t-282.5 121q-105 0 -193.5 -41.5t-149 -110.5t-103.5 -158.5t-62.5 -184.5t-19.5 -189zM715 1532q18 98 54 138t99 40q53 0 133 -31q63 -24 89 -24q32 0 40 47h109 q-18 -97 -54.5 -137.5t-99.5 -40.5q-53 0 -133 30q-65 25 -88 25q-32 0 -43 -47h-106z" />
<glyph unicode="&#xd6;" horiz-adv-x="1560" d="M125 584q0 136 32 262t98.5 234.5t160 189t225 126.5t285.5 46q142 0 256.5 -48t188 -132t112.5 -194.5t39 -238.5q0 -136 -32 -261.5t-98.5 -234.5t-160 -189.5t-225 -126.5t-285.5 -46q-142 0 -256.5 48t-188 132t-112.5 194.5t-39 238.5zM367 586q0 -200 102 -321.5 t283 -121.5q105 0 193.5 41.5t149 110.5t103.5 158.5t62.5 184.5t19.5 189q0 201 -102.5 322t-282.5 121q-105 0 -193.5 -41.5t-149 -110.5t-103.5 -158.5t-62.5 -184.5t-19.5 -189zM707 1593q0 49 40.5 87t88.5 38q41 0 66.5 -26t25.5 -66q0 -49 -40.5 -87t-88.5 -38 q-41 0 -66.5 26.5t-25.5 65.5zM1024 1593q0 49 40.5 87t88.5 38q41 0 66.5 -26t25.5 -66q0 -49 -40.5 -87t-88.5 -38q-41 0 -66.5 26.5t-25.5 65.5z" />
<glyph unicode="&#xd7;" d="M162 373l336 286l-230 277l119 100l227 -276l336 284l97 -116l-336 -287l229 -276l-119 -99l-227 277l-336 -287z" />
<glyph unicode="&#xd8;" horiz-adv-x="1560" d="M16 109l187 159q-72 141 -72 316q0 136 32 261.5t98.5 234.5t160 189.5t225 126.5t285.5 46q282 0 442 -178l164 139l82 -98l-170 -146q78 -144 78 -330q0 -136 -32 -262t-98.5 -234.5t-160 -189t-225 -126.5t-285.5 -46q-291 0 -453 189l-176 -150zM373 586 q0 -84 18 -158l815 692q-105 150 -305 150q-105 0 -193.5 -41.5t-149 -110.5t-103.5 -158.5t-62.5 -184.5t-19.5 -189zM444 305q105 -162 314 -162q105 0 193.5 41.5t149 110.5t103.5 158.5t62.5 184.5t19.5 189q0 101 -22 174z" />
<glyph unicode="&#xd9;" horiz-adv-x="1417" d="M164 371q0 76 22 202l148 840h225l-151 -860q-19 -111 -19 -164q0 -116 72.5 -181t208.5 -65q152 0 241.5 67t130.5 218q16 64 25 115l152 870h225l-152 -856q-15 -85 -30 -149q-106 -437 -617 -437q-238 0 -359.5 105t-121.5 295zM688 1716h205l92 -209h-135z" />
<glyph unicode="&#xda;" horiz-adv-x="1417" d="M164 371q0 76 22 202l148 840h225l-151 -860q-19 -111 -19 -164q0 -116 72.5 -181t208.5 -65q152 0 241.5 67t130.5 218q16 64 25 115l152 870h225l-152 -856q-15 -85 -30 -149q-106 -437 -617 -437q-238 0 -359.5 105t-121.5 295zM827 1507l166 209h205l-235 -209h-136z " />
<glyph unicode="&#xdb;" horiz-adv-x="1417" d="M164 371q0 76 22 202l148 840h225l-151 -860q-19 -111 -19 -164q0 -116 72.5 -181t208.5 -65q152 0 241.5 67t130.5 218q16 64 25 115l152 870h225l-152 -856q-15 -85 -30 -149q-106 -437 -617 -437q-238 0 -359.5 105t-121.5 295zM688 1507l170 209h168l98 -209h-155 l-43 121l-84 -121h-154z" />
<glyph unicode="&#xdc;" horiz-adv-x="1417" d="M164 371q0 76 22 202l148 840h225l-151 -860q-19 -111 -19 -164q0 -116 72.5 -181t208.5 -65q152 0 241.5 67t130.5 218q16 64 25 115l152 870h225l-152 -856q-15 -85 -30 -149q-106 -437 -617 -437q-238 0 -359.5 105t-121.5 295zM653 1593q0 49 40.5 87t90.5 38 q40 0 66.5 -26t26.5 -66q0 -49 -41 -87t-91 -38q-39 0 -65.5 26.5t-26.5 65.5zM971 1593q0 49 40.5 87t90.5 38q40 0 66 -26t26 -66q0 -49 -40.5 -87t-90.5 -38q-39 0 -65.5 26.5t-26.5 65.5z" />
<glyph unicode="&#xdd;" horiz-adv-x="1243" d="M195 1413h239l254 -663l473 663h256l-653 -870l-94 -543h-226l99 553zM745 1507l164 209h205l-233 -209h-136z" />
<glyph unicode="&#xde;" horiz-adv-x="1267" d="M90 0l250 1413h225l-33 -180h250q127 0 193 -8q136 -18 217.5 -98.5t81.5 -215.5q0 -45 -8 -86q-31 -174 -149 -278t-283 -125q-70 -8 -197 -8h-250l-72 -414h-225zM420 596h242q94 0 143 8q187 33 223 219q4 36 4 49q0 142 -149 170q-52 9 -142 9h-241z" />
<glyph unicode="&#xdf;" horiz-adv-x="1234" d="M47 0l170 958q18 108 43.5 190.5t70.5 160t106.5 127t153.5 79t210 29.5q203 0 311.5 -89.5t108.5 -233.5q0 -134 -93 -252q-99 -48 -136.5 -89t-37.5 -94q0 -42 18.5 -78t65.5 -85q129 -129 129 -283q0 -69 -28.5 -130.5t-83.5 -110.5t-143 -78t-199 -29q-122 0 -217 22 l30 174q97 -26 187 -26q110 0 161.5 53t51.5 127q0 97 -88 190q-68 75 -94.5 125.5t-26.5 124.5q0 162 213 271q49 73 49 157q0 75 -51.5 118.5t-153.5 43.5q-77 0 -135.5 -30t-96.5 -87.5t-61 -124t-39 -155.5l-170 -975h-225z" />
<glyph unicode="&#xe0;" horiz-adv-x="1079" d="M25 254q0 145 96 242.5t262 137.5t385 25l4 23q14 92 14 131q0 63 -37 101t-118 38q-116 0 -178 -52t-86 -157l-226 -2q35 177 170 276t332 99q189 0 279 -74.5t90 -203.5q0 -55 -21 -181l-67 -381q-22 -126 -29 -276h-223l8 158l-76 -105q-95 -82 -280 -82 q-126 0 -212.5 73t-86.5 210zM264 281q0 -70 45 -108t121 -38q96 0 183 77.5t110 193.5l18 104q-132 15 -238.5 -4t-172.5 -77t-66 -148zM451 1415h204l99 -233h-136z" />
<glyph unicode="&#xe1;" horiz-adv-x="1079" d="M25 254q0 145 96 242.5t262 137.5t385 25l4 23q14 92 14 131q0 63 -37 101t-118 38q-116 0 -178 -52t-86 -157l-226 -2q35 177 170 276t332 99q189 0 279 -74.5t90 -203.5q0 -55 -21 -181l-67 -381q-22 -126 -29 -276h-223l8 158l-76 -105q-95 -82 -280 -82 q-126 0 -212.5 73t-86.5 210zM264 281q0 -70 45 -108t121 -38q96 0 183 77.5t110 193.5l18 104q-132 15 -238.5 -4t-172.5 -77t-66 -148zM590 1182l182 233h205l-252 -233h-135z" />
<glyph unicode="&#xe2;" horiz-adv-x="1079" d="M25 254q0 145 96 242.5t262 137.5t385 25l4 23q14 92 14 131q0 63 -37 101t-118 38q-116 0 -178 -52t-86 -157l-226 -2q35 177 170 276t332 99q189 0 279 -74.5t90 -203.5q0 -55 -21 -181l-67 -381q-22 -126 -29 -276h-223l8 158l-76 -105q-95 -82 -280 -82 q-126 0 -212.5 73t-86.5 210zM264 281q0 -70 45 -108t121 -38q96 0 183 77.5t110 193.5l18 104q-132 15 -238.5 -4t-172.5 -77t-66 -148zM455 1182l176 233h168l92 -233h-152l-43 135l-92 -135h-149z" />
<glyph unicode="&#xe3;" horiz-adv-x="1079" d="M25 254q0 145 96 242.5t262 137.5t385 25l4 23q14 92 14 131q0 63 -37 101t-118 38q-116 0 -178 -52t-86 -157l-226 -2q35 177 170 276t332 99q189 0 279 -74.5t90 -203.5q0 -55 -21 -181l-67 -381q-22 -126 -29 -276h-223l8 158l-76 -105q-95 -82 -280 -82 q-126 0 -212.5 73t-86.5 210zM264 281q0 -70 45 -108t121 -38q96 0 183 77.5t110 193.5l18 104q-132 15 -238.5 -4t-172.5 -77t-66 -148zM428 1214q17 97 53.5 138t98.5 41q55 0 135 -31q65 -25 88 -25q33 0 41 47h108q-18 -97 -54.5 -137.5t-98.5 -40.5q-53 0 -133 31 q-65 25 -88 25q-35 0 -43 -48h-107z" />
<glyph unicode="&#xe4;" horiz-adv-x="1079" d="M25 254q0 145 96 242.5t262 137.5t385 25l4 23q14 92 14 131q0 63 -37 101t-118 38q-116 0 -178 -52t-86 -157l-226 -2q35 177 170 276t332 99q189 0 279 -74.5t90 -203.5q0 -55 -21 -181l-67 -381q-22 -126 -29 -276h-223l8 158l-76 -105q-95 -82 -280 -82 q-126 0 -212.5 73t-86.5 210zM264 281q0 -70 45 -108t121 -38q96 0 183 77.5t110 193.5l18 104q-132 15 -238.5 -4t-172.5 -77t-66 -148zM412 1280q0 51 39 87t90 36q40 0 66 -26t26 -66q0 -51 -39 -87t-90 -36q-41 0 -66.5 26t-25.5 66zM737 1278q0 51 39 88t90 37 q41 0 68 -26t27 -64q0 -51 -39.5 -88t-90.5 -37q-41 0 -67.5 25.5t-26.5 64.5z" />
<glyph unicode="&#xe5;" horiz-adv-x="1079" d="M25 254q0 145 96 242.5t262 137.5t385 25l4 23q14 92 14 131q0 63 -37 101t-118 38q-116 0 -178 -52t-86 -157l-226 -2q35 177 170 276t332 99q189 0 279 -74.5t90 -203.5q0 -55 -21 -181l-67 -381q-22 -126 -29 -276h-223l8 158l-76 -105q-95 -82 -280 -82 q-126 0 -212.5 73t-86.5 210zM264 281q0 -70 45 -108t121 -38q96 0 183 77.5t110 193.5l18 104q-132 15 -238.5 -4t-172.5 -77t-66 -148zM492 1311q0 92 68 153.5t169 61.5q78 0 125 -41.5t47 -110.5q0 -92 -67.5 -153.5t-167.5 -61.5q-78 0 -126 41.5t-48 110.5zM614 1319 q0 -34 18 -53t50 -19q42 0 70 34.5t28 84.5q0 34 -18 53t-49 19q-44 0 -71.5 -34.5t-27.5 -84.5z" />
<glyph unicode="&#xe6;" horiz-adv-x="1851" d="M23 246q0 68 22.5 125.5t74 107.5t130 85t196 55t265.5 20h80q18 100 18 135q0 176 -178 176q-101 0 -165 -53.5t-87 -155.5h-225q35 176 171 274.5t332 98.5q284 0 336 -184q169 184 418 184q194 0 295.5 -112.5t101.5 -301.5q0 -113 -32 -219h-779q-4 -54 -4 -73 q0 -140 61 -206.5t165 -66.5q100 0 179.5 58t114.5 159h228q-45 -125 -132.5 -212.5t-195 -128t-229.5 -40.5q-297 0 -379 234l-90 -121q-79 -62 -159.5 -87.5t-195.5 -25.5q-150 0 -243.5 75t-93.5 200zM266 272q0 -66 45 -101.5t127 -35.5q116 0 205.5 80t112.5 211l10 55 q-37 2 -104 2q-197 0 -296.5 -49.5t-99.5 -161.5zM1030 639h549q22 311 -209 311q-118 0 -207.5 -79.5t-132.5 -231.5z" />
<glyph unicode="&#xe7;" horiz-adv-x="1126" d="M49 410q0 139 43.5 265.5t122.5 224.5t200.5 156t268.5 58q204 0 307 -108.5t105 -296.5l-228 -2q-9 243 -217 243q-157 0 -258.5 -151.5t-101.5 -384.5q0 -139 60 -209t157 -70q214 0 303 225h227q-74 -189 -202.5 -285.5t-321.5 -103.5l-41 -55q72 -12 110 -51.5 t38 -97.5q0 -98 -80.5 -147.5t-206.5 -49.5q-80 0 -127 18l18 97q49 -15 109 -15q69 0 105 23.5t36 64.5q0 44 -49 65.5t-135 12.5l100 141q-158 24 -250 134.5t-92 298.5z" />
<glyph unicode="&#xe8;" horiz-adv-x="1142" d="M49 406q0 105 23.5 205.5t74 192t122 161t174.5 110.5t225 41q205 0 318.5 -114t113.5 -302q0 -110 -33 -219h-778q-2 -25 -2 -71q0 -139 61 -207t164 -68q100 0 180 58t113 159h229q-64 -187 -212.5 -284t-338.5 -97q-196 0 -315 112.5t-119 322.5zM315 639h553 q4 46 4 61q0 120 -61 186t-170 66q-127 0 -209 -87t-117 -226zM481 1415h205l98 -233h-135z" />
<glyph unicode="&#xe9;" horiz-adv-x="1142" d="M49 406q0 105 23.5 205.5t74 192t122 161t174.5 110.5t225 41q205 0 318.5 -114t113.5 -302q0 -110 -33 -219h-778q-2 -25 -2 -71q0 -139 61 -207t164 -68q100 0 180 58t113 159h229q-64 -187 -212.5 -284t-338.5 -97q-196 0 -315 112.5t-119 322.5zM315 639h553 q4 46 4 61q0 120 -61 186t-170 66q-127 0 -209 -87t-117 -226zM621 1182l182 233h205l-252 -233h-135z" />
<glyph unicode="&#xea;" horiz-adv-x="1142" d="M49 406q0 105 23.5 205.5t74 192t122 161t174.5 110.5t225 41q205 0 318.5 -114t113.5 -302q0 -110 -33 -219h-778q-2 -25 -2 -71q0 -139 61 -207t164 -68q100 0 180 58t113 159h229q-64 -187 -212.5 -284t-338.5 -97q-196 0 -315 112.5t-119 322.5zM315 639h553 q4 46 4 61q0 120 -61 186t-170 66q-127 0 -209 -87t-117 -226zM485 1182l177 233h167l93 -233h-152l-43 135l-92 -135h-150z" />
<glyph unicode="&#xeb;" horiz-adv-x="1142" d="M49 406q0 105 23.5 205.5t74 192t122 161t174.5 110.5t225 41q205 0 318.5 -114t113.5 -302q0 -110 -33 -219h-778q-2 -25 -2 -71q0 -139 61 -207t164 -68q100 0 180 58t113 159h229q-64 -187 -212.5 -284t-338.5 -97q-196 0 -315 112.5t-119 322.5zM315 639h553 q4 46 4 61q0 120 -61 186t-170 66q-127 0 -209 -87t-117 -226zM442 1280q0 51 39 87t90 36q40 0 66.5 -26t26.5 -66q0 -51 -39 -87t-90 -36q-41 0 -67 26t-26 66zM768 1278q0 51 39 88t90 37q41 0 67.5 -25.5t26.5 -64.5q0 -52 -38.5 -88.5t-90.5 -36.5q-41 0 -67.5 25.5 t-26.5 64.5z" />
<glyph unicode="&#xec;" horiz-adv-x="509" d="M47 0l193 1087h225l-193 -1087h-225zM152 1415h204l99 -233h-136z" />
<glyph unicode="&#xed;" horiz-adv-x="509" d="M47 0l193 1087h225l-193 -1087h-225zM291 1182l182 233h205l-252 -233h-135z" />
<glyph unicode="&#xee;" horiz-adv-x="509" d="M47 0l193 1087h225l-193 -1087h-225zM156 1182l176 233h168l92 -233h-152l-43 135l-92 -135h-149z" />
<glyph unicode="&#xef;" horiz-adv-x="509" d="M47 0l193 1087h225l-193 -1087h-225zM113 1280q0 51 39 87t90 36q40 0 66 -26t26 -66q0 -51 -39 -87t-90 -36q-41 0 -66.5 26t-25.5 66zM438 1278q0 51 39 88t90 37q41 0 68 -26t27 -64q0 -51 -39.5 -88t-90.5 -37q-41 0 -67.5 25.5t-26.5 64.5z" />
<glyph unicode="&#xf0;" horiz-adv-x="1228" d="M49 422q0 94 22.5 189.5t71.5 186.5t118 161.5t169.5 113.5t218.5 43q72 0 121.5 -13t99.5 -46l66 -113q-7 182 -74 293l-272 -88l-35 111l227 73q-53 47 -139 88l172 105q107 -50 172 -127l170 55l33 -113l-135 -43q96 -180 96 -534q0 -119 -21 -229.5t-70 -214 t-121.5 -180.5t-183.5 -123t-247 -46q-221 0 -340 127t-119 324zM289 434q0 -150 62 -222.5t173 -72.5q83 0 150 33t110.5 87t72.5 125.5t41.5 144t12.5 147.5q0 131 -72.5 200.5t-176.5 69.5q-78 0 -142.5 -33.5t-106 -87.5t-70.5 -122.5t-41.5 -136.5t-12.5 -132z" />
<glyph unicode="&#xf1;" horiz-adv-x="1243" d="M47 0l191 1087h225l-31 -176l96 121q70 47 137.5 65.5t151.5 18.5q163 0 247.5 -74t84.5 -204q0 -80 -27 -222l-110 -616h-224l105 586q22 121 22 184q0 183 -194 180q-129 -3 -226 -114t-139 -351l-86 -485h-223zM504 1214q18 98 54 138.5t99 40.5q54 0 134 -31 q65 -25 88 -25q17 0 27 10.5t16 36.5h106q-18 -97 -54.5 -137.5t-99.5 -40.5q-51 0 -133 31q-62 25 -88 25q-33 0 -41 -48h-108z" />
<glyph unicode="&#xf2;" d="M55 453q0 95 23.5 187t74.5 178.5t124 152.5t180.5 105.5t236.5 39.5q123 0 218 -38.5t151.5 -106t84.5 -152t28 -184.5q0 -95 -23.5 -187.5t-74 -179t-123.5 -152.5t-180.5 -105.5t-235.5 -39.5q-124 0 -219 38.5t-152 106t-85 152.5t-28 185zM297 459q0 -143 67 -233.5 t197 -90.5q89 0 162 43.5t118 115.5t69 159t24 178q0 142 -66.5 231.5t-197.5 89.5q-89 0 -161.5 -43t-117.5 -114.5t-69.5 -158t-24.5 -177.5zM510 1415h205l98 -233h-135z" />
<glyph unicode="&#xf3;" d="M55 453q0 95 23.5 187t74.5 178.5t124 152.5t180.5 105.5t236.5 39.5q123 0 218 -38.5t151.5 -106t84.5 -152t28 -184.5q0 -95 -23.5 -187.5t-74 -179t-123.5 -152.5t-180.5 -105.5t-235.5 -39.5q-124 0 -219 38.5t-152 106t-85 152.5t-28 185zM297 459q0 -143 67 -233.5 t197 -90.5q89 0 162 43.5t118 115.5t69 159t24 178q0 142 -66.5 231.5t-197.5 89.5q-89 0 -161.5 -43t-117.5 -114.5t-69.5 -158t-24.5 -177.5zM649 1182l182 233h205l-252 -233h-135z" />
<glyph unicode="&#xf4;" d="M55 453q0 95 23.5 187t74.5 178.5t124 152.5t180.5 105.5t236.5 39.5q123 0 218 -38.5t151.5 -106t84.5 -152t28 -184.5q0 -95 -23.5 -187.5t-74 -179t-123.5 -152.5t-180.5 -105.5t-235.5 -39.5q-124 0 -219 38.5t-152 106t-85 152.5t-28 185zM297 459q0 -143 67 -233.5 t197 -90.5q89 0 162 43.5t118 115.5t69 159t24 178q0 142 -66.5 231.5t-197.5 89.5q-89 0 -161.5 -43t-117.5 -114.5t-69.5 -158t-24.5 -177.5zM514 1182l176 233h168l92 -233h-151l-43 135l-92 -135h-150z" />
<glyph unicode="&#xf5;" d="M55 453q0 95 23.5 187t74.5 178.5t124 152.5t180.5 105.5t236.5 39.5q123 0 218 -38.5t151.5 -106t84.5 -152t28 -184.5q0 -95 -23.5 -187.5t-74 -179t-123.5 -152.5t-180.5 -105.5t-235.5 -39.5q-124 0 -219 38.5t-152 106t-85 152.5t-28 185zM297 459q0 -143 67 -233.5 t197 -90.5q89 0 162 43.5t118 115.5t69 159t24 178q0 142 -66.5 231.5t-197.5 89.5q-89 0 -161.5 -43t-117.5 -114.5t-69.5 -158t-24.5 -177.5zM487 1214q17 97 53.5 138t98.5 41q55 0 135 -31q65 -25 88 -25q33 0 41 47h109q-18 -97 -55 -137.5t-99 -40.5q-53 0 -133 31 q-65 25 -88 25q-35 0 -43 -48h-107z" />
<glyph unicode="&#xf6;" d="M55 453q0 95 23.5 187t74.5 178.5t124 152.5t180.5 105.5t236.5 39.5q123 0 218 -38.5t151.5 -106t84.5 -152t28 -184.5q0 -95 -23.5 -187.5t-74 -179t-123.5 -152.5t-180.5 -105.5t-235.5 -39.5q-124 0 -219 38.5t-152 106t-85 152.5t-28 185zM297 459q0 -143 67 -233.5 t197 -90.5q89 0 162 43.5t118 115.5t69 159t24 178q0 142 -66.5 231.5t-197.5 89.5q-89 0 -161.5 -43t-117.5 -114.5t-69.5 -158t-24.5 -177.5zM471 1280q0 51 39 87t90 36q40 0 66 -26t26 -66q0 -51 -39 -87t-90 -36q-41 0 -66.5 26t-25.5 66zM797 1278q0 51 39 88t90 37 q41 0 67.5 -25.5t26.5 -64.5q0 -51 -39 -88t-90 -37q-41 0 -67.5 25.5t-26.5 64.5z" />
<glyph unicode="&#xf7;" d="M145 586l25 135h895l-23 -135h-897zM420 283q0 63 44.5 107t106.5 44q49 0 78 -29t29 -75q0 -61 -45.5 -105.5t-106.5 -44.5q-47 0 -76.5 29t-29.5 74zM539 969q0 62 45.5 105.5t105.5 43.5q47 0 77 -29t30 -73q0 -63 -45 -107.5t-107 -44.5q-47 0 -76.5 29.5t-29.5 75.5 z" />
<glyph unicode="&#xf8;" horiz-adv-x="1296" d="M-35 53l166 142q-59 109 -59 258q0 95 23.5 187t74.5 178.5t124 152.5t180.5 105.5t236.5 39.5q228 0 354 -129l170 146l82 -101l-176 -149q53 -112 53 -248q0 -95 -23.5 -187.5t-74.5 -179t-124 -152.5t-180.5 -105.5t-236.5 -39.5q-222 0 -346 121l-162 -139zM313 457 q0 -41 11 -101l573 490q-69 106 -209 106q-89 0 -162.5 -43.5t-118.5 -115t-69.5 -158.5t-24.5 -178zM375 231q70 -96 205 -96q89 0 161.5 43.5t117.5 114.5t69 158t24 178q0 49 -8 88z" />
<glyph unicode="&#xf9;" horiz-adv-x="1234" d="M86 250q0 79 27 223l110 614h226l-107 -585q-23 -124 -23 -185q0 -84 47.5 -132.5t147.5 -45.5q62 1 116 26t103 78t87 144t59 215l86 485h223l-191 -1087h-225l31 176l-96 -121q-71 -48 -137 -66t-152 -18q-162 0 -247 75t-85 204zM518 1415h205l98 -233h-135z" />
<glyph unicode="&#xfa;" horiz-adv-x="1234" d="M86 250q0 79 27 223l110 614h226l-107 -585q-23 -124 -23 -185q0 -84 47.5 -132.5t147.5 -45.5q62 1 116 26t103 78t87 144t59 215l86 485h223l-191 -1087h-225l31 176l-96 -121q-71 -48 -137 -66t-152 -18q-162 0 -247 75t-85 204zM657 1182l183 233h204l-251 -233h-136 z" />
<glyph unicode="&#xfb;" horiz-adv-x="1234" d="M86 250q0 79 27 223l110 614h226l-107 -585q-23 -124 -23 -185q0 -84 47.5 -132.5t147.5 -45.5q62 1 116 26t103 78t87 144t59 215l86 485h223l-191 -1087h-225l31 176l-96 -121q-71 -48 -137 -66t-152 -18q-162 0 -247 75t-85 204zM522 1182l176 233h168l92 -233h-151 l-43 135l-92 -135h-150z" />
<glyph unicode="&#xfc;" horiz-adv-x="1234" d="M86 250q0 79 27 223l110 614h226l-107 -585q-23 -124 -23 -185q0 -84 47.5 -132.5t147.5 -45.5q62 1 116 26t103 78t87 144t59 215l86 485h223l-191 -1087h-225l31 176l-96 -121q-71 -48 -137 -66t-152 -18q-162 0 -247 75t-85 204zM479 1280q0 51 39 87t90 36 q40 0 66 -26t26 -66q0 -51 -39 -87t-90 -36q-41 0 -66.5 26t-25.5 66zM805 1278q0 51 39 88t90 37q41 0 67.5 -25.5t26.5 -64.5q0 -51 -39 -88t-90 -37q-41 0 -67.5 25.5t-26.5 64.5z" />
<glyph unicode="&#xfd;" horiz-adv-x="1058" d="M-53 -422l26 168q36 -8 74 -8q79 0 135 39t107 135l16 31l-235 1144h254l137 -913l459 913h251l-608 -1087q-139 -249 -246.5 -339.5t-267.5 -90.5q-61 0 -102 8zM553 1182l182 233h205l-252 -233h-135z" />
<glyph unicode="&#xfe;" horiz-adv-x="1292" d="M-25 -401l340 1906h226l-107 -587l103 116q53 37 131.5 59.5t160.5 22.5q198 0 305 -122.5t107 -321.5q0 -133 -40 -256t-117 -223.5t-203 -161t-283 -60.5q-69 0 -140 22.5t-106 57.5l-51 113l-100 -565h-226zM355 362.5q10 -65.5 36.5 -116t82.5 -81t132 -30.5 q73 0 137 28.5t110.5 78t80 115.5t50.5 142t17 156q0 139 -62.5 218t-182.5 79q-65 0 -124 -22t-111.5 -67.5t-92 -124t-57.5 -183.5l-11 -57q-15 -70 -5 -135.5z" />
<glyph unicode="&#xff;" horiz-adv-x="1058" d="M-53 -422l26 168q36 -8 74 -8q79 0 135 39t107 135l16 31l-235 1144h254l137 -913l459 913h251l-608 -1087q-139 -249 -246.5 -339.5t-267.5 -90.5q-61 0 -102 8zM375 1280q0 51 39 87t90 36q40 0 66 -26t26 -66q0 -51 -39 -87t-90 -36q-41 0 -66.5 26t-25.5 66z M700 1278q0 51 39 88t90 37q41 0 68 -26t27 -64q0 -52 -38.5 -88.5t-90.5 -36.5q-41 0 -68 26t-27 64z" />
<glyph unicode="&#x152;" horiz-adv-x="2279" d="M119 563q0 119 29 239.5t93 236t155 205t225.5 144t293.5 54.5q151 0 238.5 -35t153.5 -121l32 -143l47 270h957l-33 -178h-731l-78 -438h676l-31 -179h-676l-77 -438h753l-32 -180h-977l47 266l-82 -143q-93 -82 -199 -117t-246 -35q-257 0 -397.5 152.5t-140.5 439.5z M360 569q0 -205 94.5 -315.5t268.5 -110.5q205 0 349 153.5t190 410.5q11 68 12.5 132.5t-7.5 129.5t-34.5 118t-65 95t-102.5 65t-143 23q-113 0 -208.5 -44t-159.5 -116t-109 -164.5t-65 -188t-20 -188.5z" />
<glyph unicode="&#x153;" horiz-adv-x="2002" d="M47 418q0 86 22 177.5t73 185.5t124.5 167t188 119.5t252.5 46.5q309 0 395 -244q174 244 461 244q194 0 295.5 -112.5t101.5 -301.5q0 -115 -33 -219h-778q-4 -27 -4 -71q0 -142 60 -208.5t165 -66.5q100 0 180 58t113 159h229q-67 -187 -217 -284t-338 -97 q-276 0 -358 238q-170 -238 -467 -238q-228 0 -346.5 122.5t-118.5 324.5zM289 430q0 -136 64.5 -215.5t185.5 -79.5q82 0 150.5 35.5t113 91.5t75 127t43.5 140t13 133q0 133 -64.5 210.5t-185.5 77.5q-82 0 -150 -34.5t-112.5 -89.5t-75 -125t-44 -138.5t-13.5 -132.5z M1182 639h549q4 50 4 66q0 120 -54.5 182.5t-158.5 62.5q-118 0 -207.5 -79.5t-132.5 -231.5z" />
<glyph unicode="&#x178;" horiz-adv-x="1243" d="M195 1413h239l254 -663l473 663h256l-653 -870l-94 -543h-226l99 553zM571 1593q0 49 40.5 87t88.5 38q41 0 67 -26t26 -66q0 -49 -40.5 -87t-88.5 -38q-41 0 -67 26.5t-26 65.5zM889 1593q0 49 40.5 87t88.5 38q41 0 66.5 -26t25.5 -66q0 -49 -40.5 -87t-88.5 -38 q-41 0 -66.5 26.5t-25.5 65.5z" />
<glyph unicode="&#x2c6;" horiz-adv-x="614" d="M70 1182l178 233h166l92 -233h-152l-43 135l-92 -135h-149z" />
<glyph unicode="&#x2dc;" horiz-adv-x="614" d="M45 1214q18 98 54.5 138.5t99.5 40.5q53 0 133 -31q65 -25 88 -25q17 0 27 10.5t16 36.5h106q-18 -98 -54 -138t-99 -40q-51 0 -133 31q-62 25 -88 25q-33 0 -41 -48h-109z" />
<glyph unicode="&#x2000;" horiz-adv-x="910" />
<glyph unicode="&#x2001;" horiz-adv-x="1821" />
<glyph unicode="&#x2002;" horiz-adv-x="910" />
<glyph unicode="&#x2003;" horiz-adv-x="1821" />
<glyph unicode="&#x2004;" horiz-adv-x="607" />
<glyph unicode="&#x2005;" horiz-adv-x="455" />
<glyph unicode="&#x2006;" horiz-adv-x="303" />
<glyph unicode="&#x2007;" horiz-adv-x="303" />
<glyph unicode="&#x2008;" horiz-adv-x="227" />
<glyph unicode="&#x2009;" horiz-adv-x="364" />
<glyph unicode="&#x200a;" horiz-adv-x="101" />
<glyph unicode="&#x2010;" horiz-adv-x="581" d="M53 512l25 135h450l-24 -135h-451z" />
<glyph unicode="&#x2011;" horiz-adv-x="581" d="M53 512l25 135h450l-24 -135h-451z" />
<glyph unicode="&#x2012;" horiz-adv-x="581" d="M53 512l25 135h450l-24 -135h-451z" />
<glyph unicode="&#x2013;" horiz-adv-x="1024" d="M141 530l25 136h717l-25 -136h-717z" />
<glyph unicode="&#x2014;" horiz-adv-x="2048" d="M141 530l25 136h1741l-25 -136h-1741z" />
<glyph unicode="&#x2018;" horiz-adv-x="487" d="M164 924l4 24l276 465h195l-246 -489h-229z" />
<glyph unicode="&#x2019;" horiz-adv-x="487" d="M74 924l245 489h230l-4 -22l-277 -467h-194z" />
<glyph unicode="&#x201a;" horiz-adv-x="503" d="M-186 -248l247 490h232l-4 -23l-279 -467h-196z" />
<glyph unicode="&#x201c;" horiz-adv-x="876" d="M164 924l4 24l276 465h195l-246 -489h-229zM553 924l4 24l277 465h194l-246 -489h-229z" />
<glyph unicode="&#x201d;" horiz-adv-x="876" d="M74 924l245 489h230l-4 -22l-277 -467h-194zM463 924l246 489h229l-4 -22l-277 -467h-194z" />
<glyph unicode="&#x201e;" horiz-adv-x="892" d="M-186 -248l247 490h232l-4 -23l-279 -467h-196zM205 -248l246 490h231l-4 -23l-279 -467h-194z" />
<glyph unicode="&#x2022;" horiz-adv-x="759" d="M150 584q0 109 81.5 188.5t188.5 79.5q86 0 138 -52t52 -134q0 -109 -81 -188t-189 -79q-85 0 -137.5 52t-52.5 133z" />
<glyph unicode="&#x2026;" horiz-adv-x="1425" d="M-6 96q0 76 51 125t125 49q57 0 91 -34.5t34 -90.5q0 -75 -51 -124.5t-123 -49.5q-58 0 -92.5 34.5t-34.5 90.5zM455 96q0 76 51 125t125 49q57 0 91 -34.5t34 -90.5q0 -75 -51 -124.5t-123 -49.5q-58 0 -92.5 34.5t-34.5 90.5zM915 96q0 76 51.5 125t125.5 49 q57 0 91 -34.5t34 -90.5q0 -75 -51.5 -124.5t-123.5 -49.5q-58 0 -92.5 34.5t-34.5 90.5z" />
<glyph unicode="&#x202f;" horiz-adv-x="364" />
<glyph unicode="&#x2039;" horiz-adv-x="804" d="M231 508l340 340h199l-356 -356l211 -324h-172z" />
<glyph unicode="&#x203a;" horiz-adv-x="811" d="M20 168l357 356l-211 324h174l221 -340l-340 -340h-201z" />
<glyph unicode="&#x205f;" horiz-adv-x="455" />
<glyph unicode="&#x20ac;" d="M-14 514l45 135h123q3 54 12 109h-100l45 135h84q31 114 83.5 208t134 173t201.5 123.5t269 44.5q238 0 336 -129l-117 -139q-90 96 -240 96q-88 0 -160.5 -29.5t-124.5 -82t-87.5 -118.5t-57.5 -147h569l-47 -135h-551q-9 -57 -12 -109h529l-43 -135h-486 q10 -204 89 -287.5t225 -83.5q175 0 319 82l-33 -178q-153 -76 -344 -76q-110 0 -195 26.5t-152.5 87.5t-105.5 168.5t-42 260.5h-166z" />
<glyph unicode="&#x2122;" horiz-adv-x="1103" d="M63 1266l17 86h407l-14 -86h-151l-58 -332h-108l59 332h-152zM463 934l74 416h161l27 -310l135 310h160l-74 -416h-106l55 291l-131 -283h-113l-33 281l-49 -289h-106z" />
<glyph unicode="&#x25fc;" horiz-adv-x="1085" d="M0 0v1085h1085v-1085h-1085z" />
</font>
</defs>
</svg>
